Васабі / Wasabi (2001) 1080p 2хUkr/Fra | Sub Eng/Fra

Нові коментарі

Нова тема   Відповісти
Автор Повідомлення
Premer_Joker 
Частий відвідувач


З нами з: 22.01.13
Востаннє: 10.12.19
Повідомлень: 41

2017-12-10 21:57  
Васабі / Wasabi (2001) 1080p 2хUkr/Fra | Sub Eng/Fra

Васабі / Wasabi (2001) 1080p 2хUkr/Fra | Sub Eng/Fra


Жанр: бойовик, комедія, кримінальний, драма
Країна: Франція, Японія



Кінокомпанія: Canal+ [fr], Europa Corp., TF1 Films Production, Victor Company of Japan Ltd. (JVC), Destiny INC.
Режисер: Жерар Кравчик / Gerard Krawczyk
Актори: Жан Рено /Jean Reno/, Ріоко Хіросуе /Ryoko Hirosue/, Мішель Мюллер /Michel Muller/, Кароль Буке /Carole Bouquet/, Йоші Оіда /Yoshi Oida/, Крістіан Сінніже /Christian Sinniger/, Александр Брік /Alexandre Brik/, Жан-Марк Монтальто /Jean-Marc Montalto/, Хірата Харухіко /Hirata Haruhiko/, Мішель Скорно /Michel Scourneau

Сюжет:
Суворий та безкомпромісний поліцейський комісар Юбер Фіорентіно одного дня дізнається, що його кохана з Японії загинула і що у нього є дочка. Мати, яка була таємним агентом, залишила їй у спадок 200 мільйонів доларів. На дівчинку полюють японські гангстери, котрі вбили її матір, проте поява Юбера руйнує плани злочинців…


Тривалість: 1:33:44
Якість: 1080p by [email protected]
Відео:
кодек:
розмір кадру: 1916 x 816
бітрейт: 13000 кб/с

Аудіо # 1:
мова: українська
переклад: двоголосий закадровий Cтудія «1+1» | Ролі озвучили: Лариса Руснак і Олександр Ігнатуша
кодек: 5.1
бітрейт: 384 кб/с

Аудіо # 2:
мова: українська
переклад: багатоголосий закадровий Так Треба Продакшн на замовлення телеканалу "Enter-фільм"
кодек: 5.1
бітрейт: 384 кб/с

Аудіо # 3:
мова: французька
переклад: оригінал
кодек: 5.1
бітрейт: 448 кб/с

Субтитри:
мова: англійська
тип: програмні (м'які)
формат: *.srt

Субтитри:
мова: французька
тип: програмні (м'які)
формат: *.srt
Info
General
Unique ID : 187403503468732005613018489015873455381 (0x8CFC9A1634F92FE2B522F038DEF64515)
Complete name : D:\Video\Wasabi (2001) 1080p [2хUkr,Fre] [Sub Eng,Fre].
Format :
Format version : Version 4 / Version 2
File size : 9.31 GiB
Duration : 1 h 33 min
Overall bit rate : 14.2 Mb/s
Encoded date : UTC 2017-12-10 19:05:14
Writing application : v18.0.0 ('Apricity') 64-bit
Writing library : libebml v1.3.5 + v1.4.8

Video
ID : 1
Format : AVC
Format/Info : Advanced Video Codec
Format profile : [email protected]
Format settings, CABAC : Yes
Format settings, RefFrames : 5 frames
Codec ID : V_MPEG4/ISO/AVC
Duration : 1 h 33 min
Bit rate : 13.0 Mb/s
Width : 1 916 pixels
Height : 816 pixels
Display aspect ratio : 2.35:1
Frame rate mode : Constant
Frame rate : 24.000 FPS
Color space : YUV
Chroma subsampling : 4:2:0
Bit depth : 8 bits
Scan type : Progressive
Bits/(Pixel*Frame) : 0.346
Stream size : 8.51 GiB (91%)
Title : Васабі / Wasabi (2001) 1080p 2хUkr/Fra | Sub Eng/Fra
Writing library : core 114 r1913 5fd3dce
Encoding settings : cabac=1 / ref=5 / deblock=1:-3:-3 / analyse=0x3:0x133 / me=umh / subme=10 / psy=1 / psy_rd=1.00:0.05 / mixed_ref=1 / me_range=64 / chroma_me=1 / trellis=2 / 8x8dct=1 / cqm=0 / deadzone=21,11 / fast_pskip=0 / chroma_qp_offset=-3 / threads=12 / sliced_threads=0 / nr=0 / decimate=0 / interlaced=0 / constrained_intra=0 / bframes=8 / b_pyramid=2 / b_adapt=2 / b_bias=0 / direct=3 / weightb=1 / open_gop=0 / weightp=2 / keyint=250 / keyint_min=24 / scenecut=40 / intra_refresh=0 / rc_lookahead=40 / rc=2pass / mbtree=0 / bitrate=13000 / ratetol=1.0 / qcomp=0.60 / qpmin=0 / qpmax=69 / qpstep=4 / cplxblur=20.0 / qblur=0.5 / vbv_maxrate=50000 / vbv_bufsize=62500 / nal_hrd=none / ip_ratio=1.40 / pb_ratio=1.30 / aq=1:0.80
Language : French
Default : Yes
Forced : No
Color range : Limited
Color primaries : BT.709
Transfer characteristics : BT.709
Matrix coefficients : BT.709

Audio #1
ID : 2
Format : AC-3
Format/Info : Audio Coding 3
Format settings, Endianness : Big
Codec ID : A_AC3
Duration : 1 h 33 min
Bit rate mode : Constant
Bit rate : 384 kb/s
Channel(s) : 6 channels
Channel positions : Front: L C R, Side: L R, LFE
Sampling rate : 48.0 kHz
Frame rate : 31.250 FPS (1536 SPF)
Bit depth : 16 bits
Compression mode : Lossy
Stream size : 257 MiB (3%)
Title : двоголосий закадровий, cтудія «1+1»
Language : Ukrainian
Service kind : Complete Main
Default : Yes
Forced : Yes

Audio #2
ID : 3
Format : AC-3
Format/Info : Audio Coding 3
Format settings, Endianness : Big
Codec ID : A_AC3
Duration : 1 h 33 min
Bit rate mode : Constant
Bit rate : 384 kb/s
Channel(s) : 6 channels
Channel positions : Front: L C R, Side: L R, LFE
Sampling rate : 48.0 kHz
Frame rate : 31.250 FPS (1536 SPF)
Bit depth : 16 bits
Compression mode : Lossy
Stream size : 257 MiB (3%)
Title : багатоголосий закадровий, «Так Треба Продакшн»
Language : Ukrainian
Service kind : Complete Main
Default : No
Forced : No

Audio #3
ID : 4
Format : AC-3
Format/Info : Audio Coding 3
Format settings, Endianness : Big
Codec ID : A_AC3
Duration : 1 h 33 min
Bit rate mode : Constant
Bit rate : 448 kb/s
Channel(s) : 6 channels
Channel positions : Front: L C R, Side: L R, LFE
Sampling rate : 48.0 kHz
Frame rate : 31.250 FPS (1536 SPF)
Bit depth : 16 bits
Compression mode : Lossy
Stream size : 300 MiB (3%)
Title : Original @ 5.1 448kbps
Language : French
Service kind : Complete Main
Default : No
Forced : No

Text #1
ID : 5
Format : UTF-8
Codec ID : S_TEXT/UTF8
Codec ID/Info : UTF-8 Plain Text
Duration : 1 h 26 min
Bit rate : 51 b/s
Count of elements : 815
Stream size : 32.7 KiB (0%)
Title : Eng @ SRT
Language : English
Default : No
Forced : No

Text #2
ID : 6
Format : UTF-8
Codec ID : S_TEXT/UTF8
Codec ID/Info : UTF-8 Plain Text
Duration : 1 h 26 min
Bit rate : 53 b/s
Count of elements : 926
Stream size : 34.1 KiB (0%)
Title : Fre @ SRT
Language : French
Default : No
Forced : No

Menu
00:00:00.000 : en:Start
00:03:13.625 : en:The Chief's Son
00:05:59.499 : en:Tranny Interview
00:07:40.749 : en:Banque de L'Etoile Robbery
00:10:02.666 : en:Two Month Suspension
00:12:31.332 : en:Dinner With Sofia
00:16:18.748 : en:"My Name Is Hishibashi"
00:18:39.415 : en:Welcome to Japan
00:20:15.956 : en:Momo
00:24:35.039 : en:Sole Legatee
00:29:12.372 : en:Yumi
00:32:58.789 : en:The Crematorium
00:39:20.871 : en:Miko's File
00:42:52.704 : en:Yumi's Inheritance
00:46:28.246 : en:Red Alert
00:47:21.745 : en:Goons With Shades
00:51:42.912 : en:Arms & Fashion Show
00:55:16.078 : en:The Nightclub
00:58:31.369 : en:Yakuza Shootout
01:03:49.827 : en:Names & Numbers
01:05:21.702 : en:Like Tigers & Wolves
01:08:34.910 : en:Takanawa aka the Zebra
01:12:13.243 : en:King of Clubs
01:13:52.785 : en:Wasabi
01:16:56.159 : en:Message in Kyoto
01:19:03.742 : en:Making a Withdrawal
01:23:04.950 : en:The Account Is Closed
01:25:21.158 : en:Farewells
Скріншоти
Подяки:
За звукозапис з ТБ восвобода, xslim, dvorsky і Merdiff
За зведення обох українських доріжок _oles

Джерело:
Особиста оцінка: 7 - моїй подрузі не сподобалося


Срібний реліз (на рейтинг впливає 50% завантаженого)
 Трекер:    Зареєстрований   

Завантажити / скачати фільм українською



відео для новачків



 Зареєстрований:   2017-12-10 21:57
 Розмір:   9.31 GB 
 Оцінка фільму:   9.5/10 (Голосів: 19)
   
Інші релізи
   Васабі / Wasabi (2001) 1080p H.265 3xUkr/Fre | Sub Eng/Fre ukr_anonymous  5 / 0   5.79 GB   2018-08-09 10:29 
   Васабі / Wasabi (2001) AVC 3xUkr/Fra | sub Fra Arsenfpu  6 / 0   2.7 GB   2018-05-13 23:26 
   Васабі / Wasabi (2001) | [480 x 204] Skillters  1 / 0   500 MB   2015-10-29 16:31 
   Васабі / Wasabi (2001) 720p 2хUkr/Fra | Sub Eng/Fra Hurtomivets'  2 / 0   4.57 GB   2011-08-15 18:17 
   Васабі / Wasabi (2001) 2хUkr/Fra Sub Fra _oles  2 / 0   1.96 GB   2011-08-14 10:23 
Sacramental 
Частий відвідувач


З нами з: 24.11.16
Востаннє: 10.12.19
Повідомлень: 45

2017-12-11 14:43  
Ну це вже класика))) Wide grin
powerball 
Новенький


З нами з: 23.02.17
Востаннє: 09.12.19
Повідомлень: 11

2017-12-24 13:48  
супер фільм, передивляюсь раз у рік в компанії однолітків)
ukurainajin 
Частий відвідувач


З нами з: 17.05.16
Востаннє: 07.12.19
Повідомлень: 30

2018-07-30 16:35  
Жану Рено сьогодні 70. Дивитимемось.
Oleksa9 
VIP


З нами з: 17.05.12
Востаннє: 10.12.19
Повідомлень: 386

2019-03-07 06:00  
1+1:
"по роботі" -> у справах
розкаже -> розповість
"це точно" -> дійсно
схожі -> подібні
жарко -> спекотно
кошмар -> жахіття
"по крамницях" -> крамницями

Ваш часовий пояс: GMT + 2 Години

Нова тема   Відповісти