Комісар Алекс / Інспектор Алекс (Сезон 5 (серії 12, 13), 6) / Komisarz Alex (Sezon 5 (odc. 12, 13), 6) (2014) 1080p Ukr/Pol

Нові коментарі

Нова тема   Відповісти
Останній раз роздавалося serpantin2012 (2018-07-25)
Автор Повідомлення
Anonymous 







2017-12-10 16:14  



Комісар Алекс / Інспектор Алекс (Сезон 5 (серії 12, 13), 6) / Komisarz Alex (Sezon 5 (odc. 12, 13), 6) (2014) 1080p Ukr/Pol

Комісар Алекс / Інспектор Алекс (Сезон 5 (серії 12, 13), 6) / Komisarz Alex (Sezon 5 (odc. 12, 13), 6) (2014) 1080p Ukr/Pol


Жанр: детектив, кримінальний
Країна: Польща



Кінокомпанія: TVP 1
Режисер: Роберт Віхровскі (Robert Wichrowski), Кшиштоф Ланг (Krzysztof Lang), Славомір Фабіцкі (Slawomir Fabicki)
Актори: Антоній Павлицький (Antoni Pawlicki), Магдалена Валях (Magdalena Walach), Іренеус Чоп (Ireneusz Czop), Януш Хабьор (Janusz Chabior)

Сюжет:
Пес по кличці "Алекс" - не просто напарник комісара поліції польського міста Лодзь. Це справжній детектив, гострому розуму якого можуть позаздрити багато слідчих. Разом зі своїм господарем він розкриває найбільш заплутані кримінальні історії, таємничі вбивства, вибухи бомб, викрадення заручників.

Серіал є польською адаптацією популярного австрійсько-італійського телесеріалу "Комісар Рекс".


Тривалість: 1 серія: 42-44 хв. (цілком серій: 15)
Перелік серій
Сезон 5:
12. Убивча таємниця / Zabojczy sekret
13. Сліпа лють / Slepa furia

Сезон 6:
01. Викуп / Okup
02. На повній швидкості / Na pelnym gazie
03. Утікачі / Uciekinierzy
04. Братовбивство / Bratobojstwo
05. Воскреслий / Powstaly z martwych
06. Смерть у музеї / Smierc w muzeum
07. Чоловік, який дивиться / Mezczyzna, ktory patrzy
08. Красива смерть / Piekna smierc
09. Смертоносне Таро / Zabojczy tarot
10. Місячний убивця / Ksiezycowy zabojca
11. Афера / Przekret
12. Півцарства за коня / Kon wart miliony
13. Холоднокровне вбивство / Z zimna krwia
Якість:
Відео:
кодек:
розмір кадру: 1920 х 1080
бітрейт: 6000 кб/с

Аудіо # 1:
мова: українська
переклад: двоголосий закадровий
кодек: 2.0
бітрейт: 192 кб/с

Аудіо # 2:
мова: польська
переклад: оригінал
кодек: 2.0
бітрейт: 96 кб/с

Джерело озвучення:
Info
General
Unique ID : 252781294095086879935339125581655000873 (0xBE2BE807B98100BB9860C030E8674729)
Complete name : E:\Support\Комісар Алекс [, 1080p, Ukr, Pol]\Сезон 6\01. Викуп.
Format :
Format version : Version 4 / Version 2
File size : 1.91 GiB
Duration : 43 min 25 s
Overall bit rate : 6 290 kb/s
Movie name : [66] Викуп
Encoded date : UTC 2017-12-09 22:11:02
Writing application : v18.0.0 ('Apricity') 64-bit
Writing library : libebml v1.3.5 + v1.4.8

Video
ID : 1
Format : AVC
Format/Info : Advanced Video Codec
Format profile : [email protected]
Format settings, CABAC : Yes
Format settings, ReFrames : 8 frames
Codec ID : V_MPEG4/ISO/AVC
Duration : 43 min 25 s
Bit rate : 6 000 kb/s
Width : 1 920 pixels
Height : 1 080 pixels
Display aspect ratio : 16:9
Frame rate mode : Constant
Frame rate : 25.000 FPS
Color space : YUV
Chroma subsampling : 4:2:0
Bit depth : 8 bits
Scan type : Progressive
Bits/(Pixel*Frame) : 0.116
Stream size : 1.82 GiB (95%)
Writing library : core 148 r2708 86b7198
Encoding settings : cabac=1 / ref=8 / deblock=1:0:0 / analyse=0x3:0x133 / me=umh / subme=9 / psy=1 / psy_rd=1.00:0.00 / mixed_ref=1 / me_range=16 / chroma_me=1 / trellis=2 / 8x8dct=1 / cqm=0 / deadzone=21,11 / fast_pskip=1 / chroma_qp_offset=-2 / threads=6 / lookahead_threads=1 / sliced_threads=0 / nr=0 / decimate=1 / interlaced=0 / bluray_compat=0 / constrained_intra=0 / bframes=3 / b_pyramid=2 / b_adapt=2 / b_bias=0 / direct=3 / weightb=1 / open_gop=0 / weightp=2 / keyint=250 / keyint_min=25 / scenecut=40 / intra_refresh=0 / rc_lookahead=60 / rc=2pass / mbtree=1 / bitrate=6000 / ratetol=1.0 / qcomp=0.60 / qpmin=0 / qpmax=69 / qpstep=4 / cplxblur=20.0 / qblur=0.5 / ip_ratio=1.40 / aq=1:1.00
Language : Polish
Default : Yes
Forced : No
Color range : Limited
Color primaries : BT.709
Transfer characteristics : BT.709
Matrix coefficients : BT.709

Audio #1
ID : 2
Format : AC-3
Format/Info : Audio Coding 3
Format settings, Endianness : Big
Codec ID : A_AC3
Duration : 43 min 25 s
Bit rate mode : Constant
Bit rate : 192 kb/s
Channel(s) : 2 channels
Channel positions : Front: L R
Sampling rate : 48.0 kHz
Frame rate : 31.250 FPS (1536 spf)
Bit depth : 16 bits
Compression mode : Lossy
Delay relative to video : -21 ms
Stream size : 59.6 MiB (3%)
Title : 2+2
Language : Ukrainian
Service kind : Complete Main
Default : Yes
Forced : No

Audio #2
ID : 3
Format :
Format/Info : Advanced Audio Codec
Format profile : LC
Codec ID : A_AAC
Duration : 43 min 25 s
Bit rate : 96.0 kb/s
Channel(s) : 2 channels
Channel positions : Front: L R
Sampling rate : 44.1 kHz
Frame rate : 43.066 FPS (1024 spf)
Compression mode : Lossy
Delay relative to video : -21 ms
Stream size : 29.9 MiB (2%)
Language : Polish
Default : No
Forced : No
Скріншоти

Подяки:
POMEO та slavik_v_z за запис з ТБ

Джерело: &
Особиста оцінка: 8 - мені сподобалося


Бронзовий реліз (на рейтинг впливає 75% завантаженого)
 Трекер:    Зареєстрований   

Завантажити / скачати серіал українською



відео для новачків



 Зареєстрований:   2017-12-10 16:14
 Розмір:   28.48 GB 
 Оцінка серіалу:   1/10 (Голосів: 10)
   
Ваш часовий пояс: GMT + 2 Години

Нова тема   Відповісти