Підводна ера / Deep (2017)

Нові коментарі

Нова тема   Відповісти
Автор Повідомлення
Anonymous 







2017-12-08 15:05  
Підводна ера / Deep (2017)

Підводна ера / Deep (2017)


Жанр: анімація, комедія, пригодницький, сімейний
Країна: США, Іспанія, Бельгія



Кінокомпанія: The Thinklab, Kraken Films, The, Umedia
Режисер: Джуліо Сото Гарпід / Julio Soto Gurpide
Актори: Джастін Фелбінгер / Justin Felbinger, Філ ЛаМарр / Phil LaMarr, Джесс Харнелл / Jess Harnell, Стівен Г'юз / Stephen Hughes, Боб Берген / Bob Bergen, Вільям Саліерс / William Salyers, Анна Вочіно / Anna Vocino, Террі Дуглас / Terri Douglas, Джо Охман / Joe Ochman, Дейв Фенной / Dave Fennoy та інші

Сюжет:
Вже сто років минуло відтоді, як люди покинули Землю. Тепер вся планета затоплена водою, і її повноправними господарями стали всілякі мешканці океанів і морів. Головний герой мультфільму – маленький глибоководний восьминіг Діп. Живе він в затишному куточку океану, де панує спокій і порядок. Але йому ніколи не сидиться на місці. Так вийшло, що після чергових його експериментів всі близькі йому істоти опинилися в небезпеці. Щоб їх врятувати, Діп разом з двома своїми кращими друзями повинен розшукати кита, який живе на місці колишнього мегаполісу. Дорогою вони зустрінуть нових друзів і навчаться долати всілякі перешкоди, перед якими відступати не можна.


Тривалість: 01:28:24
Якість: [Hurtom]
Відео:
кодек:
розмір кадру: 720х384
бітрейт: 1954 кб/с

Аудіо :
мова: українська
переклад: професійний дубльований | студія ААА-sound
кодек: 5.1
бітрейт: 384 кб/с
Інформація про дубляж
Режисер: Олександр Єфімов
Ролі дублювали: Юлія Перенчук, Олег Собчук, Дмитро Завадський, Катерина Буцька, Катерина Брайковська, Кирило Нікітенко, Ярослав Чорненький, Анатолій Зіновенко, Олена Узлюк та інші.
Фільм дубльовано студією ААА-sound у 2017 році на замовлення компанії Вольґа Україна.
Info
Код:
General
Complete name               : Deep (2017) [Hurtom].avi
Format                      : AVI
Format/Info                 : Audio Video Interleave
File size                   : 1.45 GiB
Duration                    : 1 h 28 min
Overall bit rate            : 2 347 kb/s
Movie name                  : Підводна ера / Deep (2017) [Hurtom]
Genre                       : анімація, комедія, пригодницький, сімейний
Writing application         : VirtualDubModUkr 1.5.10.2 (build 2542/release)
Writing library             : VirtualDubMod build 2542/release
Comment                     : https://toloka.to/t85751

Video
ID                          : 0
Format                      : MPEG-4 Visual
Format profile              : Advanced [email protected]
Format settings             : BVOP1
Format settings, BVOP       : 1
Format settings, QPel       : No
Format settings, GMC        : No warppoints
Format settings, Matrix     : Default (MPEG)
Codec ID                    :
Codec ID/Hint               :
Duration                    : 1 h 28 min
Bit rate                    : 1 954 kb/s
Width                       : 720 pixels
Height                      : 384 pixels
Display aspect ratio        : 1.85:1
Frame rate                  : 25.000 FPS
Color space                 : YUV
Chroma subsampling          : 4:2:0
Bit depth                   : 8 bits
Scan type                   : Progressive
Compression mode            : Lossy
Bits/(Pixel*Frame)          : 0.283
Stream size                 : 1.21 GiB (83%)
Writing library             : 67

Audio
ID                          : 1
Format                      : AC-3
Format/Info                 : Audio Coding 3
Codec ID                    : 2000
Duration                    : 1 h 28 min
Bit rate mode               : Constant
Bit rate                    : 384 kb/s
Channel(s)                  : 6 channels
Channel positions           : Front: L C R, Side: L R, LFE
Sampling rate               : 48.0 kHz
Frame rate                  : 31.250 FPS (1536 SPF)
Bit depth                   : 16 bits
Compression mode            : Lossy
Stream size                 : 243 MiB (16%)
Alignment                   : Split accross interleaves
Interleave, duration        : 40  ms (1.00 video frame)
Interleave, preload duratio : 500  ms
Title                       : UKR Dub [AAA-sound, iTunes]
Service kind                : Complete Main


Джерело: &


 Трекер:    Зареєстрований   

Завантажити / скачати мультфільм українською



відео для новачків



 Зареєстрований:   2017-12-08 15:13
 Розмір:   1.45 GB 
 Оцінка мультфільму:   7.5/10 (Голосів: 37)
   
Інші релізи
   Підводна ера / Deep (2017) 1080p Ukr/Eng | Sub Eng Electroz  15 / 0   3.64 GB   2017-09-05 13:53 
   Підводна ера / Deep (2017) 720p Ukr/Eng | Sub Eng 11FrYkT  5 / 0   3.12 GB   2017-09-05 06:12 
   Підводна ера / Deep (2017) AVC Ukr/Eng | Sub Eng 11FrYkT  15 / 0   1.75 GB   2017-09-05 06:08 
Ваш часовий пояс: GMT + 2 Години

Нова тема   Відповісти