Дюнкерк / Dunkirk (2017) 720p Ukr/Eng | Sub Eng

Нові коментарі

Нова тема   Відповісти
Автор Повідомлення
Anonymous 







2017-12-07 17:55  
Дюнкерк / Dunkirk (2017) 720p Ukr/Eng | Sub Eng

Дюнкерк / Dunkirk (2017) 720p Ukr/Eng | Sub Eng
Альтернативний постер



Жанр: військовий, драма, історичний
Країна: США, Велика Британія, Франція, Нідерланди



Кінокомпанія: Warner Bros. Pictures, Studio Canal, Canal+
Режисер: Крiстофер Нолан / Christopher Nolan
Актори: Фіонн Вайтгед / Fionn Whitehead, Том Ґлінн-Карні / Tom Glynn-Carney, Джек Лавден / Jack Lowden, Гаррі Стайлз / Harry Styles, Анейрін Барнард / Aneurin Barnard, Кеннет Брана / Kenneth Branagh, Джеймс Д'Арсі / James D'Arcy, Том Гарді / Tom Hardy, Марк Райленс / Mark Rylance, Кіліан Мерфі / Cillian Murphy, Вільям Аттенборо / William Attenborough та інші

Сюжет:
Фільм розповість історію порятунку більше 300 тисяч солдатів в ході Дюнкеркської операції, проведеної в рамках Другої світової війни у травні 1940 року.
Офіційні українські трейлери:




Рейтинг MPAA: PG-13 - дітям до 13 років перегляд не бажаний
Вікова категорія: 12+
Тривалість: 01:46:38
Якість: 720p
Відео:
кодек:
розмір кадру: 1280х720
бітрейт: 4351 кб/с

Аудіо # 1:
мова: українська
переклад: професійний дубльований | студія Postmodern
кодек: 2.0
бітрейт: 192 кб/с
Інформація про дубляж
Переклад: Олег Колесніков
Режисер дубляжу: Ганна Пащенко
Звукорежисер: Олександр Мостовенко, Юрій Антонов
Ролі дублювали: Павло Лі, Андрій Федінчик, Олег Лепенець, Дмитро Терещук, Андрій Твердак, Іван Розін, Володимир Кокотунов та інші.

Дубльовано студією Postmodern.


Аудіо # 2:
мова: англійська
переклад: оригінал
кодек: 5.1
бітрейт: 640 кб/с

Субтитри # 1:
мова: українська (форсовані)
тип: програмні (м'які)
формат: *.srt

Субтитри # 2-3:
мова: англійська (повні, SDH)
тип: програмні (м'які)
формат: *.srt

Збережено оригінальні розділи, як на Blu-ray
Info
Код:
Complete name               : Dunkirk (2017) [Ukr,Eng] 720p [Hurtom].
Format                      :
Format version              : Version 4 / Version 2
File size                   : 3.86 GiB
Duration                    : 1 h 46 min
Overall bit rate            : 5 183 kb/s
Movie name                  : Дюнкерк / Dunkirk (2017) [Ukr,Eng] 720p [Hurtom]
Released date               : 2017
Writing library             : libebml v1.3.5 + libmatroska v1.4.8
Cover                       : Yes
Comment                     : http://www.imdb.com/title/tt5013056/
Attachments                 : cover.jpg
ARTIST                      : Фіонн Вайтгед / Fionn Whitehead, Том Ґлінн-Карні / Tom Glynn-Carney, Джек Лавден / Jack Lowden, Гаррі Стайлз / Harry Styles, Анейрін Барнард / Aneurin Barnard, Кеннет Брана / Kenneth Branagh, Джеймс Д'Арсі / James D'Arcy, Том Гарді / Tom Hardy, Марк Райленс / Mark Rylance, Кіліан Мерфі / Cillian Murphy, Вільям Аттенборо / William Attenborough та інші
DIRECTOR                    : Крiстофер Нолан / Christopher Nolan
GENRE                       : військовий, драма, історичний
SYNOPSIS                    : Фільм розповість історію порятунку більше 300 тисяч солдатів в ході Дюнкеркської операції, проведеної в рамках Другої світової війни у травні 1940 року...
Url                         : https://toloka.to/t85735

Video
ID                          : 1
Format                      : AVC
Format/Info                 : Advanced Video Codec
Format profile              : [email protected]
Format settings             : CABAC / 5 Ref Frames
Format settings, CABAC      : Yes
Format settings, ReFrames   : 5 frames
Codec ID                    : V_MPEG4/ISO/AVC
Duration                    : 1 h 46 min
Bit rate                    : 4 351 kb/s
Width                       : 1 280 pixels
Height                      : 720 pixels
Display aspect ratio        : 16:9
Frame rate mode             : Constant
Frame rate                  : 23.976 (24000/1001) FPS
Color space                 : YUV
Chroma subsampling          : 4:2:0
Bit depth                   : 8 bits
Scan type                   : Progressive
Bits/(Pixel*Frame)          : 0.197
Stream size                 : 3.24 GiB (84%)
Title                       : Дюнкерк / Dunkirk (2017) 720p [SPARKS]
Writing library             : core 152 r2851 ba24899
Encoding settings           : cabac=1 / ref=5 / deblock=1:-3:-3 / analyse=0x3:0x113 / me=umh / subme=8 / psy=1 / psy_rd=1.00:0.00 / mixed_ref=1 / me_range=16 / chroma_me=1 / trellis=1 / 8x8dct=1 / cqm=0 / deadzone=21,11 / fast_pskip=1 / chroma_qp_offset=-2 / threads=22 / lookahead_threads=3 / sliced_threads=0 / nr=0 / decimate=1 / interlaced=0 / bluray_compat=0 / constrained_intra=0 / bframes=3 / b_pyramid=2 / b_adapt=1 / b_bias=0 / direct=3 / weightb=1 / open_gop=0 / weightp=2 / keyint=240 / keyint_min=24 / scenecut=40 / intra_refresh=0 / rc_lookahead=50 / rc=2pass / mbtree=1 / bitrate=4351 / ratetol=1.0 / qcomp=0.60 / qpmin=0 / qpmax=69 / qpstep=4 / cplxblur=20.0 / qblur=0.5 / ip_ratio=1.40 / aq=1:1.00
Language                    : English
Default                     : Yes
Forced                      : No

Audio #1
ID                          : 2
Format                      : AC-3
Format/Info                 : Audio Coding 3
Codec ID                    : A_AC3
Duration                    : 1 h 46 min
Bit rate mode               : Constant
Bit rate                    : 192 kb/s
Channel(s)                  : 2 channels
Channel positions           : Front: L R
Sampling rate               : 48.0 kHz
Frame rate                  : 31.250 FPS (1536 SPF)
Bit depth                   : 16 bits
Compression mode            : Lossy
Stream size                 : 146 MiB (4%)
Title                       : Dub [Postmodern, Line] 2.0 192 Kbps [Hurtom - Covenant]
Language                    : Ukrainian
Service kind                : Complete Main
Default                     : Yes
Forced                      : Yes

Audio #2
ID                          : 3
Format                      : AC-3
Format/Info                 : Audio Coding 3
Codec ID                    : A_AC3
Duration                    : 1 h 46 min
Bit rate mode               : Constant
Bit rate                    : 640 kb/s
Channel(s)                  : 6 channels
Channel positions           : Front: L C R, Side: L R, LFE
Sampling rate               : 48.0 kHz
Frame rate                  : 31.250 FPS (1536 SPF)
Bit depth                   : 16 bits
Compression mode            : Lossy
Stream size                 : 488 MiB (12%)
Title                       : Original, 5.1 640 Kbps
Language                    : English
Service kind                : Complete Main
Default                     : No
Forced                      : No

Text #1
ID                          : 4
Format                      : UTF-8
Codec ID                    : S_TEXT/UTF8
Codec ID/Info               : UTF-8 Plain Text
Duration                    : 8 min 42 s
Bit rate                    : 12 b/s
Count of elements           : 10
Stream size                 : 800 Bytes (0%)
Title                       : Ukr forced
Language                    : Ukrainian
Default                     : Yes
Forced                      : Yes

Text #2
ID                          : 5
Format                      : UTF-8
Codec ID                    : S_TEXT/UTF8
Codec ID/Info               : UTF-8 Plain Text
Duration                    : 1 h 43 min
Bit rate                    : 24 b/s
Count of elements           : 694
Stream size                 : 18.5 KiB (0%)
Title                       : Eng full
Language                    : English
Default                     : No
Forced                      : No

Text #3
ID                          : 6
Format                      : UTF-8
Codec ID                    : S_TEXT/UTF8
Codec ID/Info               : UTF-8 Plain Text
Duration                    : 1 h 45 min
Bit rate                    : 29 b/s
Count of elements           : 859
Stream size                 : 22.7 KiB (0%)
Title                       : Eng SDH
Language                    : English
Default                     : No
Forced                      : No

Menu
00:00:00.000                : en:00:00:00.000
00:08:51.364                : en:00:08:51.364
00:20:13.754                : en:00:20:13.754
00:29:07.621                : en:00:29:07.621
00:42:35.261                : en:00:42:35.261
00:52:48.207                : en:00:52:48.207
01:04:32.827                : en:01:04:32.827
01:12:50.825                : en:01:12:50.825
01:25:55.025                : en:01:25:55.025
01:33:23.348                : en:01:33:23.348
01:39:13.906                : en:01:39:13.906


Джерело: &
Подяка Covenant'у за українську доріжку.

При появі якіснішого звуку/відео реліз буде оновлено.


 Трекер:    Зареєстрований   

Завантажити / скачати фільм українською



відео для новачків



 Зареєстрований:   2017-12-07 20:57
 Розмір:   3.86 GB 
 Оцінка фільму:   7.6/10 (Голосів: 63)
   
Інші релізи
   Дюнкерк / Dunkirk (2017) AVC Ukr/Eng | Sub Eng 11FrYkT  104 / 1   2.18 GB   2017-12-07 22:43 
   Дюнкерк / Dunkirk (2017) 1080p Ukr/Eng | Sub Eng Electroz  132 / 0   10.95 GB   2017-12-07 17:27 
   Дюнкерк / Dunkirk (2017) Covenant  155 / 1   1.45 GB   2017-12-07 16:22 
Anonymous 







2017-12-07 21:06  
Зробив форсовані субтитри на неозвучені написи.
the_romero 
Новенький


З нами з: 18.02.17
Востаннє: 11.12.17
Повідомлень: 1

2017-12-07 21:26  
Як там з аудіо, це ж не MIC запис?
Anonymous 







2017-12-07 21:27  
the_romero, ні не мік, в описі є семпл для оцінки якості звуку.
Cayman1993 
Новенький


З нами з: 04.01.13
Востаннє: 12.12.17
Повідомлень: 3

2017-12-07 21:32  
Anonymous написано:
Зробив форсовані субтитри на неозвучені написи.

дякую, такого часто бракує в фільмах

kinofail 
Новенький


З нами з: 29.08.12
Востаннє: 08.12.17
Повідомлень: 1

2017-12-08 11:32  
Дуже дякую!!! Влітку в I Max не встиг....
varjat 
Попереджень: 1
Попереджень: 1 


З нами з: 27.02.12
Востаннє: 12.12.17
Повідомлень: 47

2017-12-08 12:22  
Фільм такий добрий ,теплий - війна показана війною ,звичайно епічності драйву нема,це не трансформери. Зараз налетять хейтери ,шо нудно ,без екшену- яка може бути комічність в таких історіях? люди пачками конали ,тому фільм не для широкого перегляду в кінотеатрі з потріскуванням попкорну.


лайка, видано igor911
Wowatorrent 
Частий відвідувач


З нами з: 23.03.16
Востаннє: 13.12.17
Повідомлень: 47

2017-12-09 02:14  
Не розумію я цих високих рейтингів. Посереднє кіно з хаотичним набором якихось епізодів. Про постановку динамічних сцен взагалі немає що говорити, таке враження, що у режисера в школі з фізики була двійка. Це мені нагадало Легенду Г'ю Ґласса, таке саме недолуге кіно з завищеними рейтингами.
varjat 
Попереджень: 1
Попереджень: 1 


З нами з: 27.02.12
Востаннє: 12.12.17
Повідомлень: 47

2017-12-09 13:11  
Wowatorrent
а фільми Гая Річі теж мають хаотичний набір якихось епізодів? фільм не претендує на лаври динамічного екшену,мене вже двічі попередили на рівному місці ,за коментарі - я знову скажу що фільм на любителя.Тут події розгортаються з певною послідовністю, хочуть нас в деяких місцях ввести в оману-наприклад,коли пілот не може вилізти з кабіни і просуває руку з кабіни,а герой Тома Харді думає,що він йому махає рукою і показує що все добре.

Wowatorrent 
Частий відвідувач


З нами з: 23.03.16
Востаннє: 13.12.17
Повідомлень: 47

2017-12-09 13:43  
varjat. якби фільм претендував на лаври динамічного екшну, це все ще можна було би пробачити. Але коли фільм претендує на звання якогось пристойного кінематографу, то подібні сцени потрібно знімати якісно.
calуpso 
Новенький


З нами з: 14.06.12
Востаннє: 12.12.17
Повідомлень: 12

2017-12-09 14:18  
Дюнкерк помітно вирізняється серед військових драм останніх років. Атмосфера фільму незрівнянна!
Однозначно дивитися всім, хоча б, щоби скласти свою думку. 9/10

nolikest 
Частий відвідувач


З нами з: 18.06.14
Востаннє: 12.12.17
Повідомлень: 41

2017-12-09 16:49  
Чому на українській аудіо доріжці немає саундтреку? Там тільки український дубляж, а немає класного саундтреку від Ганса Ціммера, в оригінальній доріжці все гаразд. Без музики Ціммера цей фільм не так класно дивитися. Дивився його в кінотеатрі і він мені дуже сподобався. Найкращий фільм про війну.
Anonymous 







2017-12-09 20:13  
nolikest, бо це не ліцензійна доріжка, див. уважніше опис.
Wowatorrent 
Частий відвідувач


З нами з: 23.03.16
Востаннє: 13.12.17
Повідомлень: 47

2017-12-10 00:41  
Навіть не думав, що в неліцензійній доріжці може бути відсутній саундтрек. Це, м'яко кажучи, несподівано. Це ж абсолютно інше сприйняття фільму. І часто таке буває?
Anonymous 







2017-12-10 00:44  
Wowatorrent написано:
І часто таке буває?

та траплялося пару разів, найвідоміший випадок - відсутній голос корабля Алекс у "Валеріані..."

kurtol 
Попереджень: 1
Попереджень: 1 


З нами з: 25.07.09
Востаннє: 12.12.17
Повідомлень: 11

2017-12-10 16:33  
Ні драматизму, ні видовищності. Не часто історичні фільми із заявкою на топ, виявляються порожніми, як цей. Рейтинг не зрозумілий і хз звідки взявся
Alex_Shumway 
Новенький


З нами з: 10.07.16
Востаннє: 10.12.17
Повідомлень: 19

2017-12-10 18:55  
Ох, далеко не одразу стає зрозумілим ось це "1 week / 1 day / 1 hour"...
Але коли до тебе доходить - все складається докупи.
І так, це мені теж чимось нагадало Гая Річі, коли всі розрізнені ниточки в кінці сходяться в одну точку.
9.99/10
Це не екшн, панове... Це серйозний фільм.

Wowatorrent 
Частий відвідувач


З нами з: 23.03.16
Востаннє: 13.12.17
Повідомлень: 47

2017-12-10 20:40  
Alex_Shumway
Цитата:
Це серйозний фільм.
Так, це серйозний фільм, в якому кулі потрапляють куди завгодно тільки не в головного героя, як в дешевому бойовику; літаки не тонуть; серед моря стерчить якесь затонуле судно, ніби там глибина десять метрів; в тонучому кораблі вода знаходиться вище рівня моря. І ще купа подібних приколів.

ALFROMEDA 
Відео Гуртом - підтримка та поширення
Відео Гуртом - підтримка та поширення


З нами з: 09.07.12
Востаннє: 13.12.17
Повідомлень: 290

2017-12-11 08:54  
добре що не ходив у кіно.
фільм як і події не дуже. Не бачу за що Нолану відвалили 20лимонів, стандартно нудний історичний фільм..

5/10

vovang6 
Свій


З нами з: 27.08.12
Востаннє: 12.12.17
Повідомлень: 111

2017-12-11 15:46  
Непогана картина, 6/10.
Ваш часовий пояс: GMT + 2 Години

Нова тема   Відповісти