Історія з м’ясом (27 серій з 27) (2017) 720p

Нові коментарі

Нова тема   Відповісти
Автор Повідомлення
MaXnOvEz 
Новенький


З нами з: 19.03.13
Востаннє: 17.12.17
Повідомлень: 4

2017-12-06 08:42  
Історія з м’ясом (27 серій з 27) (2017) 720p

Історія з м’ясом (27 серій з 27) (2017) 720p


Жанр: документальний, історичний
Країна: Україна

Телеканал / кіностудія: Youtube / Skrypin.ua
Режисер: Данило Яневський
Актори: Данило Яневський, Тетяна Боряк та історики гості студії

Сюжет:
Гарячий гриль контраверсійних версій подій та портрети реальних людей, які своїми вчинками творили історію України. Такого в підручниках не пишуть.


Тривалість: 1 випуск: ~20 хв. (цілком випусків: 27)
Якість:
Відео:
кодек:
розмір кадру: 1280*720
бітрейт: 1138 кб/с

Аудіо:
мова: українська
кодек: 2 ch
бітрейт: 125 кб/с
Скріншоти




Серії:
ІСТОРІЯ З М’ЯСОМ #1 _ Чи пишатися Центральною Радою
ІСТОРІЯ З М’ЯСОМ #2 _ Навіщо Україну вивчають у Гарварді
ІСТОРІЯ З М’ЯСОМ #3 _ Євреї_ Початок української історії
ІСТОРІЯ З М’ЯСОМ #4 _ Україна_ Східні коріння
ІСТОРІЯ З М’ЯСОМ #5 _ Що і як відзначають українці 9 травня
ІСТОРІЯ З М’ЯСОМ #6 _ Україна у світовій історії
ІСТОРІЯ З М’ЯСОМ #7 _ Українcький Донбас_ 300 років самотності
ІСТОРІЯ З М’ЯСОМ #8 _ Менталітет українців_ Що воно за чудо таке
ІСТОРІЯ З М’ЯСОМ #9 _ Як народилася українська аристократія
ІСТОРІЯ З М’ЯСОМ #10 _ Київська Русь_ коли і яку спадщину ВОНИ вкрали у НАС
ІСТОРІЯ З М’ЯСОМ #11 _ Європейський спадок України та український спадок Європи
ІСТОРІЯ З М’ЯСОМ #12 _ Конституція Пилипа Орлика
ІСТОРІЯ З М’ЯСОМ #13 _ Державні символи України
ІСТОРІЯ З М’ЯСОМ #14 _ Яку спадщину втратила Україна за час перебування у складі імперій
ІСТОРІЯ З М’ЯСОМ #15 _ Україна як простір можливостей_ міста та підприємці ХІХ ст
ІСТОРІЯ З М’ЯСОМ #16 _ Опір та репресована пам’ять_ архіви спецслужб
ІСТОРІЯ З М’ЯСОМ #17 _ Київ_ столиця варварів або цивілізованих людей
ІСТОРІЯ З М’ЯСОМ #18 _ Іван Котляревський, «Енеїда» та «Любов до істини»
ІСТОРІЯ З М’ЯСОМ #19 _ Українська культура в Україні_ 100 років досвіду
ІСТОРІЯ З М’ЯСОМ #20 _ 26 років (не)залежності
ІСТОРІЯ З М’ЯСОМ #21 _ Національно-визвольні змагання 1917-1920
ІСТОРІЯ З М’ЯСОМ #22 _ Середньовічна історія України у джерелах
ІСТОРІЯ З М’ЯСОМ #23 _ Культурна спадщина, втрачена у війні
ІСТОРІЯ З М’ЯСОМ #24 _ Незнаний півострів_ Крим у ХХ ст
ІСТОРІЯ З М'ЯСОМ #25 _ Комуністичні трансформації православ'я в Україні
ІСТОРІЯ З М'ЯСОМ #26 _ Слобожанщина як феномен українських еліт
ІСТОРІЯ З М'ЯСОМ #27 _ Гетьманат. Світанок української держави
Info:


Format : MPEG-4
Format profile : Base Media / Version 2
Codec ID : mp42 (isom/mp42)
File size : 534 MiB
Duration : 1 h 33 min
Overall bit rate mode : Variable
Overall bit rate : 796 kb/s
Encoded date : UTC 2017-11-29 11:17:23
Tagged date : UTC 2017-11-29 11:17:23
gsst : 0
gstd : 5628099
Video #1
ID : 1
Format : AVC
Format/Info : Advanced Video Codec
Format profile : [email protected]
Format settings : CABAC / 3 Ref Frames
Format settings, CABAC : Yes
Format settings, ReFrames : 3 frames
Codec ID : avc1
Codec ID/Info : Advanced Video Coding
Duration : 1 h 33 min
Bit rate : 667 kb/s
Width : 1 280 pixels
Height : 720 pixels
Display aspect ratio : 16:9
Frame rate mode : Constant
Frame rate : 25.000 FPS
Color space : YUV
Chroma subsampling : 4:2:0
Bit depth : 8 bits
Scan type : Progressive
Bits/(Pixel*Frame) : 0.029
Stream size : 447 MiB (84%)
Title : ISO Media file produced by Google Inc. Created on: 11/29/2017.
Encoded date : UTC 2017-11-29 11:17:23
Tagged date : UTC 2017-11-29 11:17:23
Color range : Limited
Color primaries : BT.709
Transfer characteristics : BT.709
Matrix coefficients : BT.709
Audio #2
ID : 2
Format :
Format/Info : Advanced Audio Codec
Format profile : LC
Codec ID : mp4a-40-2
Duration : 1 h 33 min
Bit rate mode : Variable
Bit rate : 126 kb/s
Channel(s) : 2 channels
Channel positions : Front: L R
Sampling rate : 44.1 kHz
Frame rate : 43.066 FPS (1024 SPF)
Compression mode : Lossy
Stream size : 84.3 MiB (16%)
Title : ISO Media file produced by Google Inc. Created on: 11/29/2017.
Encoded date : UTC 2017-11-29 11:17:23
Tagged date : UTC 2017-11-29 11:17:23
Джерело:
Особиста оцінка: 8 - мені сподобалося


 Трекер:    Зареєстрований   

Завантажити / скачати фільм українською



відео для новачків



 Зареєстрований:   2017-12-06 20:11
 Розмір:   15.42 GB 
 Оцінка фільму:   4.5/10 (Голосів: 4)
   
11FrYkT 
Модератор відео


З нами з: 20.02.11
Востаннє: 18.12.17
Повідомлень: 4115

2017-12-06 09:02  
MaXnOvEz ,
1. в заголовку вкажіть кількість серій(випусків) з скількох

2. додати перелік серії і їх назви під спойлер

3. Скріншоти мають бути у форматі ПНГ, + додайте звіт Медіаінфо

Форкуш 
VIP


З нами з: 03.02.10
Востаннє: 17.12.17
Повідомлень: 1944

2017-12-06 09:31  
Данило Яневський?????????? Історик?? Пфффффф...
Тут все, про нього.

respect14 
VIP


З нами з: 26.01.11
Востаннє: 17.12.17
Повідомлень: 495

2017-12-07 16:18  
Яневський дуже дивний дядько...зверхній і мало схожий на історика
jaral 
Відео Гуртом - підтримка та поширення
Відео Гуртом - підтримка та поширення


З нами з: 18.10.07
Востаннє: 18.12.17
Повідомлень: 509

2017-12-10 19:21  
Форкуш написано:
Данило Яневський?????????? Історик?? Пфффффф...

То може його писанину, яку популяризують на Гуртом, все таки негайно перенести до рубрики художня література?

Форкуш 
VIP


З нами з: 03.02.10
Востаннє: 17.12.17
Повідомлень: 1944

2017-12-10 19:22  
jaral
я не проти)

Ваш часовий пояс: GMT + 2 Години

Нова тема   Відповісти