Мати! / Mother! (2017) 720p Ukr/Eng | Sub Ukr/Eng

Нові коментарі

Нова тема   Відповісти
Автор Повідомлення
Anonymous 







2017-12-06 01:07  
Мати! / Mother! (2017) 720p Ukr/Eng | Sub Ukr/Eng

Мати! / Mother! (2017) 720p Ukr/Eng | Sub Ukr/Eng


Жанр: жахи, драма, трилер, детектив
Країна: США



Кінокомпанія: Paramount Pictures
Режисер: Даррен Аронофскі / Darren Aronofsky
Актори: Дженніфер Лоуренс / Jennifer Lawrence, Хав'єр Бардем / Javier Bardem, Ед Гарріс / Ed Harris, Мішель Пфайффер / Michelle Pfeiffer, Донал Глісон / Domhnall Gleeson, Брайан Глісон / Brian Gleeson, Стівен МакХетті / Stephen McHattie, Крістен Віґ / Kristen Wiig, Йован Адепо / Jovan Adepo, Патріція Саммерсетт / Patricia Summersett, Абрахам Аронофскі / Abraham Aronofsky та інші

Сюжет:
Молода дружина займається облаштуванням будинку. Їхнє з чоловіком житло розташоване далеко від людей, в лісі. Життя подружжя було ідеальним до того моменту, поки до них в будинок не прийшли непрохані гості. І чим більше часу проходить з їхньої появи, тим незрозумілішим і страшнішим стає життя пари.

Психологічний трилер «Мати!» – нове дітище режисера і сценариста Даррена Аронофскі ("Реквієм за мрією", "Чорний лебідь"). Головні ролі виконали володарі премій "Оскар" Хав'єр Бардем та Дженніфер Лоуренс, яка заради зйомок з Аронофскі відмовилася від участі в інших проектах. Зйомки фільму проходили влітку 2016 року. Даний проект стане першим, де музику для Аронофскі буде писати не Клінт Менселл, а Йохан Йоханнсон ( "Всесвіт Стівена Хокінга"). Прем'єра картини відбулася на Венеціанському міжнародному кінофестивалі. Фільм обраний для участі в конкурсній програмі на здобуття головного призу фестивалю – Золотого лева.
Офіційний український трейлер:

Рейтинг MPAA: R - особам до 17 років обов'язкова присутність батьків або дорослого опікуна
Вікова категорія: 16+
Тривалість: 02:01:11
Якість: 720p
Відео:
кодек:
розмір кадру: 1280х536
бітрейт: 7102 кб/с

Аудіо # 1:
мова: українська
переклад: професійний дубльований | студія LeDoyen
кодек: 2.0 [стерео]
бітрейт: 192 кб/с

Аудіо # 2:
мова: англійська
переклад: оригінал
кодек: 5.1
бітрейт: 640 кб/с

Субтитри #1-2:
мова: українська (форсовані, повні)
тип: програмні (м'які)
формат: *.srt
переклад: Марія Цехмейструк

Субтитри # 3-4:
мова: англійська (повні, SDH)
тип: програмні (м'які)
формат: *.srt

Збережено оригінальні розділи, як на Blu-ray
Info
Код:
Complete name               : Mother! (2017) [Ukr,Eng sub.Ukr,Eng] 720p [Hurtom].
Format                      :
Format version              : Version 4 / Version 2
File size                   : 6.71 GiB
Duration                    : 2 h 1 min
Overall bit rate            : 7 932 kb/s
Movie name                  : Мати! / Mother! (2017) [Ukr,Eng sub.Ukr,Eng] 720p [Hurtom]
Released date               : 2017
Writing library             : libebml v1.3.5 + libmatroska v1.4.8
Cover                       : Yes
Comment                     : http://www.imdb.com/title/tt5109784/
Attachments                 : cover.jpg
ARTIST                      : Дженніфер Лоуренс / Jennifer Lawrence, Хав'єр Бардем / Javier Bardem, Ед Гарріс / Ed Harris, Мішель Пфайффер / Michelle Pfeiffer, Донал Глісон / Domhnall Gleeson, Брайан Глісон / Brian Gleeson, Стівен МакХетті / Stephen McHattie, Крістен Віґ / Kristen Wiig, Йован Адепо / Jovan Adepo, Патріція Саммерсетт / Patricia Summersett, Абрахам Аронофскі / Abraham Aronofsky та інші
DIRECTOR                    : Даррен Аронофскі / Darren Aronofsky
GENRE                       : жахи, драма, трилер
SYNOPSIS                    : Молода дружина займається облаштуванням будинку. Їхнє з чоловіком житло розташоване далеко від людей, в лісі. Життя подружжя було ідеальним до того моменту, поки до них в будинок не прийшли непрохані гості. І чим більше часу проходить з їхньої появи, тим незрозумілішим і страшнішим стає життя пари...
Url                         : https://toloka.to/t85687

Video
ID                          : 1
Format                      : AVC
Format/Info                 : Advanced Video Codec
Format profile              : [email protected]
Format settings             : CABAC / 12 Ref Frames
Format settings, CABAC      : Yes
Format settings, ReFrames   : 12 frames
Codec ID                    : V_MPEG4/ISO/AVC
Duration                    : 2 h 1 min
Bit rate                    : 7 102 kb/s
Width                       : 1 280 pixels
Height                      : 536 pixels
Display aspect ratio        : 2.40:1
Frame rate mode             : Constant
Frame rate                  : 23.976 (24000/1001) FPS
Color space                 : YUV
Chroma subsampling          : 4:2:0
Bit depth                   : 8 bits
Scan type                   : Progressive
Bits/(Pixel*Frame)          : 0.432
Stream size                 : 6.01 GiB (89%)
Title                       : Мати! / Mother! (2017) 720p
Writing library             : core 148 r2597 e86f3a1
Encoding settings           : cabac=1 / ref=12 / deblock=1:0:0 / analyse=0x3:0x113 / me=umh / subme=10 / psy=1 / psy_rd=1.05:0.10 / mixed_ref=1 / me_range=32 / chroma_me=1 / trellis=2 / 8x8dct=1 / cqm=0 / deadzone=21,11 / fast_pskip=0 / chroma_qp_offset=-2 / threads=12 / lookahead_threads=1 / sliced_threads=0 / nr=0 / decimate=1 / interlaced=0 / bluray_compat=0 / constrained_intra=0 / bframes=6 / b_pyramid=2 / b_adapt=2 / b_bias=0 / direct=3 / weightb=1 / open_gop=0 / weightp=2 / keyint=250 / keyint_min=23 / scenecut=40 / intra_refresh=0 / rc=2pass / mbtree=0 / bitrate=7102 / ratetol=1.0 / qcomp=0.70 / qpmin=0 / qpmax=69 / qpstep=4 / cplxblur=20.0 / qblur=0.5 / ip_ratio=1.40 / pb_ratio=1.30 / aq=2:1.00
Language                    : English
Default                     : Yes
Forced                      : No

Audio #1
ID                          : 2
Format                      : AC-3
Format/Info                 : Audio Coding 3
Codec ID                    : A_AC3
Duration                    : 2 h 1 min
Bit rate mode               : Constant
Bit rate                    : 192 kb/s
Channel(s)                  : 2 channels
Channel positions           : Front: L R
Sampling rate               : 48.0 kHz
Frame rate                  : 31.250 FPS (1536 SPF)
Bit depth                   : 16 bits
Compression mode            : Lossy
Stream size                 : 166 MiB (2%)
Title                       : Dub [LeDoyen, iTunes] 2.0 [stereo] 192 Kbps
Language                    : Ukrainian
Service kind                : Complete Main
Default                     : Yes
Forced                      : Yes

Audio #2
ID                          : 3
Format                      : AC-3
Format/Info                 : Audio Coding 3
Codec ID                    : A_AC3
Duration                    : 2 h 1 min
Bit rate mode               : Constant
Bit rate                    : 640 kb/s
Channel(s)                  : 6 channels
Channel positions           : Front: L C R, Side: L R, LFE
Sampling rate               : 48.0 kHz
Frame rate                  : 31.250 FPS (1536 SPF)
Bit depth                   : 16 bits
Compression mode            : Lossy
Stream size                 : 555 MiB (8%)
Title                       : Original, 5.1 640 Kbps
Language                    : English
Service kind                : Complete Main
Default                     : No
Forced                      : No

Text #1
ID                          : 4
Format                      : UTF-8
Codec ID                    : S_TEXT/UTF8
Codec ID/Info               : UTF-8 Plain Text
Duration                    : 2 h 0 min
Bit rate                    : 0 b/s
Count of elements           : 3
Stream size                 : 88.0 Bytes (0%)
Title                       : Ukr Forced
Language                    : Ukrainian
Default                     : Yes
Forced                      : Yes

Text #2
ID                          : 5
Format                      : UTF-8
Codec ID                    : S_TEXT/UTF8
Codec ID/Info               : UTF-8 Plain Text
Duration                    : 2 h 0 min
Bit rate                    : 56 b/s
Count of elements           : 1265
Stream size                 : 49.7 KiB (0%)
Title                       : Ukr Full [iTunes]
Language                    : Ukrainian
Default                     : No
Forced                      : No

Text #3
ID                          : 6
Format                      : UTF-8
Codec ID                    : S_TEXT/UTF8
Codec ID/Info               : UTF-8 Plain Text
Duration                    : 1 h 54 min
Bit rate                    : 38 b/s
Count of elements           : 1282
Stream size                 : 32.4 KiB (0%)
Title                       : Eng Full
Language                    : English
Default                     : No
Forced                      : No

Text #4
ID                          : 7
Format                      : UTF-8
Codec ID                    : S_TEXT/UTF8
Codec ID/Info               : UTF-8 Plain Text
Duration                    : 1 h 54 min
Bit rate                    : 45 b/s
Count of elements           : 1536
Stream size                 : 37.9 KiB (0%)
Title                       : Eng SDH
Language                    : English
Default                     : No
Forced                      : No

Menu
00:00:00.000                : en:00:00:00.000
00:06:22.507                : en:00:06:22.507
00:10:21.079                : en:00:10:21.079
00:15:59.500                : en:00:15:59.500
00:21:37.922                : en:00:21:37.922
00:24:59.415                : en:00:24:59.415
00:31:31.056                : en:00:31:31.056
00:38:29.224                : en:00:38:29.224
00:44:57.028                : en:00:44:57.028
00:49:35.764                : en:00:49:35.764
00:53:43.303                : en:00:53:43.303
01:02:19.694                : en:01:02:19.694
01:08:24.809                : en:01:08:24.809
01:16:52.191                : en:01:16:52.191
01:20:30.909                : en:01:20:30.909
01:28:26.885                : en:01:28:26.885
01:38:08.716                : en:01:38:08.716
01:45:52.638                : en:01:45:52.638
01:49:48.624                : en:01:49:48.624
01:56:21.183                : en:01:56:21.183


Джерело: & &


Золотий реліз (завантажене не впливає на рейтинг)
 Трекер:    Зареєстрований   

Завантажити / скачати фільм українською



відео для новачків



 Зареєстрований:   2017-12-12 21:03
 Розмір:   6.71 GB 
 Оцінка фільму:   5.8/10 (Голосів: 40)
   
Інші релізи
   Мати! / Mother! (2017) 1080p Ukr/Eng | Sub Ukr/Eng igor911  30 / 1   11.27 GB   2017-12-12 23:16 
   Мати! / Mother! (2017) Electroz  14 / 0   1.6 GB   2017-12-12 16:30 
   Мати! / Mother! (2017) AVC Ukr/Eng | Sub Ukr/Eng igor911  34 / 0   1.75 GB   2017-12-06 07:04 
Nykyphor 
Новенький


З нами з: 24.02.14
Востаннє: 16.12.17
Повідомлень: 4

2017-12-07 01:59  
Переглянув. Це неймовірно. Дуже крутий фільм.
lastbreath 
Новенький


З нами з: 02.12.15
Востаннє: 12.12.17
Повідомлень: 22

2017-12-07 11:18  
Бомбезний фільм. Сидів до 3-ї ночі, але додивився до кінця. Події не відпускали ні на хвильку!
casper101 
Поважний учасник


З нами з: 03.12.09
Востаннє: 13.12.17
Повідомлень: 241

2017-12-07 16:06  
чесно кажучи щось я не зрозумів.
Anonymous 







2017-12-07 16:17  
lastbreath 
Новенький


З нами з: 02.12.15
Востаннє: 12.12.17
Повідомлень: 22

2017-12-07 20:51  
Зате тепер ясно, чому райське яблуко було таким сакральним для бога ))
Anonymous 







2017-12-12 21:05  
Реліз оновлено до 'а.
Золото на тиждень

Yrasuk123 
Новенький


З нами з: 02.10.17
Востаннє: 15.12.17
Повідомлень: 1

2017-12-12 22:26  
Так собі ,на любітєля
2pac123 
Новенький


З нами з: 02.03.17
Востаннє: 16.12.17
Повідомлень: 4

2017-12-14 00:24  
Назва фільму вказана невірно, потрібно "mother!" з маленької.
equator 
Новенький


З нами з: 17.12.13
Востаннє: 14.12.17
Повідомлень: 3

2017-12-14 22:25  
майстерний абсурд! Альбер Камю би зацінив.
mario777 
Новенький


З нами з: 07.04.08
Востаннє: 15.12.17
Повідомлень: 17

2017-12-14 23:07  
класне кіно,змушує подумати над сенсом того божевілля ,що відбувається на екрані,мені дуже сподобалось,перший раз в такому жанрі кіно дивився.
deepfree 
VIP


З нами з: 11.02.09
Востаннє: 16.12.17
Повідомлень: 280

2017-12-16 00:45  
Не повірив негативним відгукам і передивився.
Фільм повне лайно!

Ваш часовий пояс: GMT + 2 Години

Нова тема   Відповісти