Їжак Боббі / Bobby the Hedgehog (2016) 1080p Ukr/Chi

Нові коментарі

Нова тема   Відповісти
Автор Повідомлення
Anonymous 







2017-12-03 16:08  
Їжак Боббі / Bobby the Hedgehog (2016) 1080p Ukr/Chi

Їжак Боббі / Bobby the Hedgehog (2016) 1080p Ukr/Chi


Жанр: анімація, пригодницький, сімейний
Країна: Китай



Кінокомпанія: Daysview Animation, Lions Gate Films
Режисер: Цзянмінґ Хуан / Jianming Huang
Ролі озвучують: Іан Екок / Ian Hecox, Дженн Макаллістер / Jenn McAllister, Ентоні Паділла / Anthony Padilla та інші

Сюжет:
Події картини розгортаються навколо чарівного й харизматичного їжачка по імені Боббі. Правда, він забув геть усе. Неймовірно, але факт: прокинувся в лісі, не зміг нічого згадати. Чому могло це статися? Тепер його дуже турбує дане питання, на який ніхто з тварин не може знайти відповіді. Справа в тому, що місцеві його не знають, та й йому вони не знайомі. І ось тепер маленький колючий герой вирішує будь-що-будь з'ясувати що ж насправді сталося і хто він такий...


Вікова категорія: 6+
Тривалість: 01:30:05
Якість: 1080p
Відео:
кодек:
розмір кадру: 1920х804
бітрейт: 5212 кб/с

Аудіо # 1:
мова: українська
переклад: багатоголосий закадровий | Так Треба Продакшн
кодек: 2.0 [стерео]
бітрейт: 192 кб/с

Аудіо # 2:
мова: китайська
переклад: оригінал
кодек: 2.0
бітрейт: 192 кб/с
Info
Код:
Complete name               : Bobby the Hedgehog (2016) [Ukr,Chi] 1080p [Hurtom].
Format                      :
Format version              : Version 4 / Version 2
File size                   : 3.52 GiB
Duration                    : 1 h 30 min
Overall bit rate            : 5 598 kb/s
Movie name                  : Їжак Боббі / Bobby the Hedgehog (2016) [Ukr,Chi] 1080p [Hurtom]
Released date               : 2016
Writing library             : libebml v1.3.5 + v1.4.8
Cover                       : Yes
Comment                     : http://www.imdb.com/title/tt6420776/
Attachments                 : cover.jpg
ARTIST                      : Іан Екок / Ian Hecox, Дженн Макаллістер / Jenn McAllister, Ентоні Паділла / Anthony Padilla та інші
DIRECTOR                    : Цзянмінґ Хуан / Jianming Huang
GENRE                       : анімація, пригодницький, сімейний
SYNOPSIS                    : Події картини розгортаються навколо чарівного й харизматичного їжачка по імені Боббі. Правда, він забув геть усе. Неймовірно, але факт: прокинувся в лісі, не зміг нічого згадати. Чому могло це статися? Тепер його дуже турбує дане питання, на який ніхто з тварин не може знайти відповіді. Справа в тому, що місцеві його не знають, та й йому вони не знайомі. І ось тепер маленький колючий герой вирішує будь-що-будь з'ясувати що ж насправді сталося і хто він такий...
Url                         : https://toloka.to/t85619

Video
ID                          : 1
Format                      : AVC
Format/Info                 : Advanced Video Codec
Format profile              : [email protected]
Format settings             : CABAC / 4 Ref Frames
Format settings, CABAC      : Yes
Format settings, ReFrames   : 4 frames
Codec ID                    : V_MPEG4/ISO/AVC
Duration                    : 1 h 30 min
Bit rate                    : 5 212 kb/s
Width                       : 1 920 pixels
Height                      : 804 pixels
Display aspect ratio        : 2.40:1
Frame rate mode             : Constant
Frame rate                  : 25.000 FPS
Color space                 : YUV
Chroma subsampling          : 4:2:0
Bit depth                   : 8 bits
Scan type                   : Progressive
Bits/(Pixel*Frame)          : 0.135
Stream size                 : 3.28 GiB (93%)
Title                       : Їжак Боббі / Bobby the Hedgehog (2016) 1080p
Language                    : Russian
Default                     : Yes
Forced                      : Yes

Audio #1
ID                          : 2
Format                      : AC-3
Format/Info                 : Audio Coding 3
Codec ID                    : A_AC3
Duration                    : 1 h 29 min
Bit rate mode               : Constant
Bit rate                    : 192 kb/s
Channel(s)                  : 2 channels
Channel positions           : Front: L R
Sampling rate               : 48.0 kHz
Frame rate                  : 31.250 FPS (1536 SPF)
Bit depth                   : 16 bits
Compression mode            : Lossy
Stream size                 : 124 MiB (3%)
Title                       : MVO [Volya Kids] 2.0 [stereo] 192 Kbps [Hurtom - Electroz, Sando7]
Language                    : Ukrainian
Service kind                : Complete Main
Default                     : Yes
Forced                      : Yes

Audio #2
ID                          : 3
Format                      : AC-3
Format/Info                 : Audio Coding 3
Codec ID                    : A_AC3
Duration                    : 1 h 29 min
Bit rate mode               : Constant
Bit rate                    : 192 kb/s
Channel(s)                  : 2 channels
Channel positions           : Front: L R
Sampling rate               : 48.0 kHz
Frame rate                  : 31.250 FPS (1536 SPF)
Bit depth                   : 16 bits
Compression mode            : Lossy
Stream size                 : 124 MiB (3%)
Title                       : Original, 2.0 192 Kbps
Language                    : Chinese
Service kind                : Complete Main
Default                     : No
Forced                      : No


Джерело: &
Звук: Sando7 - запис з ТБ, Electroz - синхронізація.


 Трекер:    Зареєстрований   

Завантажити / скачати мультфільм українською



відео для новачків



 Зареєстрований:   2017-12-03 16:28
 Розмір:   3.52 GB 
 Оцінка мультфільму:   4.6/10 (Голосів: 18)
   
Інші релізи
   Їжак Боббі / Bobby the Hedgehog (2016) AVC 11FrYkT  2 / 0   1.76 GB   2017-12-03 19:49 
   Їжак Боббі / Bobby the Hedgehog (2016) Electroz  3 / 0   1.37 GB   2017-12-03 14:36 
Electroz 
Відео Гуртом - підтримка та поширення
Відео Гуртом - підтримка та поширення


З нами з: 18.09.14
Востаннє: 09.03.21
Повідомлень: 4338

2017-12-03 16:14  
Anonymous написано:
| студія ААА-sound

ні, тут озвучення ТТП для Волі.

Anonymous 







2017-12-03 16:19  
ааа, а я подумав, що раз на постері ааа саунд, то їхня й озвучка.
Electroz 
Відео Гуртом - підтримка та поширення
Відео Гуртом - підтримка та поширення


З нами з: 18.09.14
Востаннє: 09.03.21
Повідомлень: 4338

2017-12-03 16:22  
Anonymous
В прокаті також була багатоголоска, яку було втрачено..

vovang6 
Поважний учасник


З нами з: 27.08.12
Востаннє: 08.03.21
Повідомлень: 223

2017-12-05 15:05  
Мене майже вирвало...
Uberwinder 
VIP


З нами з: 18.11.16
Востаннє: 08.03.21
Повідомлень: 285

2018-01-20 19:01  
Мультфільм посередній, а от саундтрек просто бімба!
Ваш часовий пояс: GMT + 2 Години

Нова тема   Відповісти