Каліфорнійський дорожній патруль / CHIPS (2017) Remux 1080p Ukr/Eng | Sub Eng

Нові коментарі

Нова тема   Відповісти
Останній раз роздавалося kysly (2020-09-22)
Автор Повідомлення
IronBee 
Поважний учасник


З нами з: 08.02.10
Востаннє: 22.09.20
Повідомлень: 231

2017-12-03 12:57  
Каліфорнійський дорожній патруль / CHIPS (2017) Remux 1080p Ukr/Eng | Sub Eng

Каліфорнійський дорожній патруль / CHIPS (2017) Remux 1080p Ukr/Eng | Sub Eng


Жанр: бойовик, комедія, кримінальний
Країна: США



Кінокомпанія: Primate Pictures, Warner Bros.
Режисер: Декс Шепард / Dax Shepard
Актори: Майкл Пенья / Michael Peña, Декс Шепард / Dax Shepard, Вінсент Д’Онофріо / Vincent D'Onofrio, Роза Салазар / Rosa Salazar, Джессіка МакНемі / Jessica McNamee, Адам Броді / Adam Brody, Ісайя Вітлок мол. / Isiah Whitlock Jr., Річард Т. Джонс / Richard T. Jones, Раян Гансен / Ryan Hansen, Крістен Белл / Kristen Bell, Джастін Четвін / Justin Chatwin, Бен Фалкон / Ben Falcone та інші

Сюжет:
Агент ФБР, фахівець з роботи під прикриттям та зваблення жінок, отримує нове завдання - провести внутрішнє розслідування в каліфорнійському дорожньому патрулі. Банда на швидкісних мотоциклах грабує інкасаторські автомобілі, і ФБР підозрює, що їм допомагає хтось із своїх. Нову особистість агента під прикриттям звуть Френк Пончерелло, і тепер він патрулює дороги сонячної Каліфорнії. У напарники йому дістається принциповий новачок і колишній мотогонщик Джон, на якого боляче дивитись - хлопець переніс купу операцій, тому живе на одних знеболювальних.


Тривалість: 01:40:51
Якість: Remux
Відео:
кодек:
розмір кадру: 1920 х 1080
бітрейт: 33.8 Mб/с

Аудіо # 1:
мова: українська | (Itunes)
переклад: професійний дубльований
кодек: 2.0
бітрейт: 192 кб/с

Аудіо # 2:
мова: англійська
переклад: оригінал
кодек: -HD MA 5.1
бітрейт: 3942 кб/с

Аудіо # 3:
мова: англійська (коментарі режисера)
переклад: оригінал
кодек: 5.1
бітрейт: 640 кб/с

Субтитри # 1:
мова: українська (форсовані)
тип: програмні
формат: *.srt

Субтитри # 2:
мова: англійська (SDH)
тип: пререндерні
формат: *.PGS
Info
General
Unique ID : 149170586659773868085308681576123749893 (0x703935C0657E3F26AFF40E4A55445605)
Complete name : E:\Films\Каліфорнійський дорожній патруль CHIPS (2017) Remux 1080p UkrEng Sub Eng[Hurtom] .
Format :
Format version : Version 4 / Version 2
File size : 27.2 GiB
Duration : 1 h 40 min
Overall bit rate mode : Variable
Overall bit rate : 38.6 Mb/s
Encoded date : UTC 2018-02-04 16:01:33
Writing application : v20.0.0 ('I Am The Sun') 64-bit
Writing library : libebml v1.3.5 + v1.4.8

Video
ID : 1
Format : AVC
Format/Info : Advanced Video Codec
Format profile : [email protected]
Format settings : CABAC / 4 Ref Frames
Format settings, CABAC : Yes
Format settings, ReFrames : 4 frames
Codec ID : V_MPEG4/ISO/AVC
Duration : 1 h 40 min
Bit rate mode : Variable
Bit rate : 33.8 Mb/s
Maximum bit rate : 36.0 Mb/s
Width : 1 920 pixels
Height : 1 080 pixels
Display aspect ratio : 16:9
Frame rate mode : Constant
Frame rate : 23.976 (24000/1001) FPS
Color space : YUV
Chroma subsampling : 4:2:0
Bit depth : 8 bits
Scan type : Progressive
Bits/(Pixel*Frame) : 0.681
Stream size : 23.8 GiB (88%)
Default : Yes
Forced : No

Audio #1
ID : 2
Format : AC-3
Format/Info : Audio Coding 3
Codec ID : A_AC3
Duration : 1 h 40 min
Bit rate mode : Constant
Bit rate : 192 kb/s
Channel(s) : 2 channels
Channel positions : Front: L R
Sampling rate : 48.0 kHz
Frame rate : 31.250 FPS (1536 SPF)
Bit depth : 16 bits
Compression mode : Lossy
Stream size : 139 MiB (0%)
Language : Ukrainian
Service kind : Complete Main
Default : Yes
Forced : No

Audio #2
ID : 3
Format :
Format/Info : Digital Theater Systems
Format profile : MA / Core
Codec ID : A_DTS
Duration : 1 h 40 min
Bit rate mode : Variable / Constant
Bit rate : 3 942 kb/s / 1 509 kb/s
Channel(s) : 6 channels
Channel positions : Front: L C R, Side: L R, LFE
Sampling rate : 48.0 kHz
Frame rate : 93.750 FPS (512 SPF)
Bit depth : 24 bits
Compression mode : Lossless / Lossy
Stream size : 2.78 GiB (10%)
Language : English
Default : No
Forced : No

Audio #3
ID : 4
Format : AC-3
Format/Info : Audio Coding 3
Codec ID : A_AC3
Duration : 1 h 40 min
Bit rate mode : Constant
Bit rate : 640 kb/s
Channel(s) : 6 channels
Channel positions : Front: L C R, Side: L R, LFE
Sampling rate : 48.0 kHz
Frame rate : 31.250 FPS (1536 SPF)
Bit depth : 16 bits
Compression mode : Lossy
Stream size : 462 MiB (2%)
Language : English
Service kind : Complete Main
Default : No
Forced : No

Text #1
ID : 5
Format : UTF-8
Codec ID : S_TEXT/UTF8
Codec ID/Info : UTF-8 Plain Text
Duration : 1 h 38 min
Bit rate : 4 b/s
Count of elements : 71
Stream size : 3.08 KiB (0%)
Language : Ukrainian
Default : No
Forced : No

Text #2
ID : 6
Format : PGS
Muxing mode : zlib
Codec ID : S_HDMV/PGS
Codec ID/Info : Picture based subtitle format used on BDs/HD-DVDs
Duration : 1 h 39 min
Bit rate : 54.5 kb/s
Count of elements : 4080
Stream size : 38.9 MiB (0%)
Language : English
Default : Yes
Forced : No
Скріншоти



Українську доріжку придбано завдяки темі Контент для придбання


Джерело: &
Особиста оцінка: 8


Золотий реліз (завантажене не впливає на рейтинг)
 Трекер:    Зареєстрований   

Завантажити / скачати фільм українською



відео для новачків



 Зареєстрований:   2018-02-04 22:09
 Розмір:   27.22 GB 
 Оцінка фільму:   8.6/10 (Голосів: 9)
   
TarantinoUA 
Новенький


З нами з: 21.09.17
Востаннє: 21.09.20
Повідомлень: 9

2017-12-04 11:15  
Зробіть роздачу золотою - допоможу роздати.
Sacramental 
Свій


З нами з: 24.11.16
Востаннє: 23.09.20
Повідомлень: 52

2017-12-04 15:26  
Ну таке... Очікував більшого!!!
Victor_Scythian 
VIP


З нами з: 06.01.17
Востаннє: 27.11.19
Повідомлень: 285

2017-12-04 21:11  
Трішечки примітивна, але смішна Wink (1)
Uberwinder 
VIP


З нами з: 18.11.16
Востаннє: 23.09.20
Повідомлень: 280

2017-12-05 08:10  
Дійсно, комедія тупувата, але у пів ока у компанії переглянути можна.
IronBee 
Поважний учасник


З нами з: 08.02.10
Востаннє: 22.09.20
Повідомлень: 231

2018-02-04 22:11  
04.02.2018 реліз оновлено: замінено звук з LINE на ITunes , додано українські форсовані субтитри
olyx 
Відео Гуртом - підтримка та поширення
Відео Гуртом - підтримка та поширення


З нами з: 26.01.10
Востаннє: 23.09.20
Повідомлень: 273

2020-03-24 12:04  
Роздача повернись)
Ваш часовий пояс: GMT + 2 Години

Нова тема   Відповісти