Удача Лохана / Logan Lucky (2017) Remux 1080p Ukr/Eng | Sub Eng/Spa/Fr

Нові коментарі

Нова тема   Відповісти
Автор Повідомлення
IronBee 
Поважний учасник


З нами з: 08.02.10
Востаннє: 14.11.19
Повідомлень: 225

2017-12-02 18:37  
Удача Лохана / Logan Lucky (2017) Remux 1080p Ukr/Eng | Sub Eng/Spa/Fr

Удача Лохана / Logan Lucky (2017) Remux 1080p Ukr/Eng | Sub Eng/Spa/Fr


Жанр: комедія, кримінальний
Країна: США



Кінокомпанія: Trans-Radial Pictures, Free Association
Режисер: Стівен Содерберґ
Актори: Чаннінґ Татум, Адам Драйвер, Деніел Крейґ, Райлі Кіо, Кеті Голмс, Сет МакФарлейн, Кетрін Вотерстон, Себастіан Стен, Гілларі Свонк, Двайт Йоакам та інші

Сюжет:
Коли Джиммі звільнили з роботи, то вся сімейка залишилася без грошей. Кращим способом розбагатіти, на їхню думку, є пограбування банку. Тож Джиммі з братом Клайдом і сестрою Мелі готуються до справи. Але самим здійснити пограбування їм не під силу. Джо Бенг розбирається в цьому як ніхто інший. Він ідеальний компаньйон, якщо не брати до уваги того, що зараз він сидить в тюрмі. На довгі збори часу немає – потрапити в сховище банку потрібно за час проведення автогонок. Так що підприємливі родичі поспіхом організовують втечу з в'язниці і пограбування.


Тривалість: 01:59:03
Якість: Remux
Відео:
кодек:
розмір кадру: 1920 х 1080
бітрейт: 30,9 Mб/с

Аудіо # 1:
мова: українська
переклад: професійний дубльований | студія Tretyakoff production
кодек: 2.0
бітрейт: 192 кб/с

Аудіо # 2:
мова: англійська
переклад: оригінал
кодек: -HD MA 5.1
бітрейт: 3267 кб/с

Субтитри:
мова: англійська (повні)
тип: пререндерні
формат: *.PGS

Субтитри:
мова: іспанська (повні)
тип: пререндерні
формат: *.PGS

Субтитри:
мова: французька (повні)
тип: пререндерні
формат: *.PGS
Info
General
Unique ID : 192616683126882094245188368022532390818 (0x90E89FB031BAC2C285C825068189FFA2)
Complete name : E:\Films\Удача Лохана Logan Lucky (2017) Remux 1080p UkrEng Sub Eng[Hurtom].
Format :
Format version : Version 4 / Version 2
File size : 28.6 GiB
Duration : 1 h 59 min
Overall bit rate mode : Variable
Overall bit rate : 34.4 Mb/s
Movie name : Logan.Lucky.2017.REMUX.1080p.BluRay.AVC.-HD.MA.5.1-iFT
Encoded date : UTC 2017-11-30 18:23:25
Writing application : v18.0.0 ('Apricity') 64-bit
Writing library : libebml v1.3.5 + v1.4.8

Video
ID : 1
Format : AVC
Format/Info : Advanced Video Codec
Format profile : [email protected]
Format settings : CABAC / 4 Ref Frames
Format settings, CABAC : Yes
Format settings, ReFrames : 4 frames
Codec ID : V_MPEG4/ISO/AVC
Duration : 1 h 59 min
Bit rate mode : Variable
Bit rate : 30.9 Mb/s
Maximum bit rate : 35.0 Mb/s
Width : 1 920 pixels
Height : 1 080 pixels
Display aspect ratio : 16:9
Frame rate mode : Constant
Frame rate : 23.976 (24000/1001) FPS
Color space : YUV
Chroma subsampling : 4:2:0
Bit depth : 8 bits
Scan type : Progressive
Bits/(Pixel*Frame) : 0.622
Stream size : 25.7 GiB (90%)
Default : Yes
Forced : No

Audio #1
ID : 2
Format : AC-3
Format/Info : Audio Coding 3
Codec ID : A_AC3
Duration : 1 h 59 min
Bit rate mode : Constant
Bit rate : 192 kb/s
Channel(s) : 2 channels
Channel positions : Front: L R
Sampling rate : 48.0 kHz
Frame rate : 31.250 FPS (1536 SPF)
Bit depth : 16 bits
Compression mode : Lossy
Stream size : 163 MiB (1%)
Language : Ukrainian
Service kind : Complete Main
Default : No
Forced : No

Audio #2
ID : 3
Format :
Format/Info : Digital Theater Systems
Format profile : MA / Core
Codec ID : A_DTS
Duration : 1 h 59 min
Bit rate mode : Variable / Constant
Bit rate : 3 267 kb/s / 1 509 kb/s
Channel(s) : 6 channels
Channel positions : Front: L C R, Side: L R, LFE
Sampling rate : 48.0 kHz
Frame rate : 93.750 FPS (512 SPF)
Bit depth : 24 bits
Compression mode : Lossless / Lossy
Stream size : 2.72 GiB (9%)
Language : English
Default : Yes
Forced : No

Text #1
ID : 4
Format : PGS
Muxing mode : zlib
Codec ID : S_HDMV/PGS
Codec ID/Info : Picture based subtitle format used on BDs/HD-DVDs
Duration : 1 h 57 min
Bit rate : 46.6 kb/s
Count of elements : 3499
Stream size : 39.3 MiB (0%)
Language : English
Default : Yes
Forced : No

Text #2
ID : 5
Format : PGS
Muxing mode : zlib
Codec ID : S_HDMV/PGS
Codec ID/Info : Picture based subtitle format used on BDs/HD-DVDs
Duration : 1 h 58 min
Bit rate : 36.0 kb/s
Count of elements : 2676
Stream size : 30.4 MiB (0%)
Language : Spanish
Default : No
Forced : No

Text #3
ID : 6
Format : PGS
Muxing mode : zlib
Codec ID : S_HDMV/PGS
Codec ID/Info : Picture based subtitle format used on BDs/HD-DVDs
Duration : 1 h 58 min
Bit rate : 39.2 kb/s
Count of elements : 2958
Stream size : 33.1 MiB (0%)
Language : French
Default : No
Forced : No

Menu
00:00:00.000 : en:Chapter 01
00:05:41.799 : en:Chapter 02
00:07:33.202 : en:Chapter 03
00:10:40.931 : en:Chapter 04
00:16:24.024 : en:Chapter 05
00:21:23.282 : en:Chapter 06
00:29:08.747 : en:Chapter 07
00:36:03.703 : en:Chapter 08
00:41:49.423 : en:Chapter 09
00:47:11.078 : en:Chapter 10
00:50:08.880 : en:Chapter 11
00:54:40.527 : en:Chapter 12
00:57:27.152 : en:Chapter 13
00:59:16.469 : en:Chapter 14
01:04:37.290 : en:Chapter 15
01:07:27.877 : en:Chapter 16
01:12:12.995 : en:Chapter 17
01:17:50.248 : en:Chapter 18
01:19:20.422 : en:Chapter 19
01:24:02.912 : en:Chapter 20
01:28:33.099 : en:Chapter 21
01:32:41.514 : en:Chapter 22
01:42:27.432 : en:Chapter 23
01:46:07.652 : en:Chapter 24
01:50:50.935 : en:Chapter 25
01:54:55.263 : en:Chapter 26
01:59:02.927 : en:Chapter 27
Скріншоти




Подяка пану Covenant за українську доріжку

Джерело: &
Особиста оцінка: 8 - без зайвих вагань рекомендую всім!


Золотий реліз (завантажене не впливає на рейтинг)
 Трекер:    Зареєстрований   

Завантажити / скачати фільм українською



відео для новачків



 Зареєстрований:   2017-12-02 18:37
 Розмір:   28.63 GB 
 Оцінка фільму:   8.6/10 (Голосів: 18)
   
Інші релізи
poluvaniyk-a-s 
Новенький


З нами з: 10.03.12
Востаннє: 17.11.19
Повідомлень: 15

2017-12-02 22:41  
дублятори гонять) лохан. в цьому ж році виходив фільм Логан, і там Logan переклали норм...
Соломон Кeйн 
Забанено
Забанено


З нами з: 19.11.16
Востаннє: 08.01.18
Повідомлень: 436

2017-12-02 23:10  
"Удача Лоґана" чи "Удача ЛОХАна"?
don pedro 
Попереджень: 1
Попереджень: 1 


З нами з: 29.06.11
Востаннє: 18.11.19
Повідомлень: 14845

2017-12-02 23:24  
Соломон Кeйн
Лохині. Дешево і сердито.

Соломон Кeйн 
Забанено
Забанено


З нами з: 19.11.16
Востаннє: 08.01.18
Повідомлень: 436

2017-12-03 00:56  
don pedro написано:
Лохині

Це тої, що на постері? Ну нащо ж так спойлерити? Вже й сенсу нема кіно дивитися.

Uberwinder 
VIP


З нами з: 18.11.16
Востаннє: 19.11.19
Повідомлень: 278

2017-12-03 08:09  
Вітаю, а є ймовірність дочекатись багатоканальної української доріжки?
Sacramental 
Частий відвідувач


З нами з: 24.11.16
Востаннє: 19.11.19
Повідомлень: 45

2017-12-03 12:12  
Якийсь рейтинг роздутий!!! Бо як на мене, фільм повна лажа!!! Muted
Uberwinder 
VIP


З нами з: 18.11.16
Востаннє: 19.11.19
Повідомлень: 278

2018-01-25 22:04  
Не так щоб повна лажа, але рейтинг суттєво завищений...
Ваш часовий пояс: GMT + 2 Години

Нова тема   Відповісти