Легіон (Сезон 1, серії 1-5) / Legion (Season 1, episodes 1-5) (2017) 1080p Ukr/Eng | sub Eng

Нові коментарі

Нова тема   Відповісти
Автор Повідомлення
НеЗупиняйПродакшн 
Відео Гуртом - озвучення
Відео Гуртом - озвучення


З нами з: 28.07.15
Востаннє: 15.12.17
Повідомлень: 523

2017-12-02 16:04  
_________________________________________________________________________________

1080p | AVC |


Легіон (Сезон 1, серії 1-5) / Legion (Season 1, episodes 1-5) (2017) 1080p Ukr/Eng | sub Eng

Легіон (Сезон 1, серії 1-5) / Legion (Season 1, episodes 1-5) (2017) 1080p Ukr/Eng | sub Eng


Жанр: фантастика, драма, екшн
Країна: США



Кінокомпанія: 20th Century Fox Television, 26 Keys Productions, Bad Hat Harry Productions
Режисер: Ной Гоулі
Актори: Ден Стівенс, Рейчел Келлер, Обрі Плаза, Білл Ірвін, Джеремі Герріс, Джин Смарт та інші

Сюжет:

Ще в дитинстві Девіду Голлеру було поставлено діагноз шизофренія і відтоді він був постійним пацієнтом різних психіатричних закладів. Після знайомства із пацієнткою на ім'я Сідні Барретт, стає очевидним, що голоси й видіння, які чує і бачить Девід, викликані не лише його хворобою...


Тривалість: 1 серія: ~40 хв. (цілком серій: 5 з 8)
Перелік серій
1. Глава 1
2. Глава 2
3. Глава 3
4. Глава 4
5. Глава 5
6. Глава 6
7. Глава 7
8. Глава 8
Якість:
Відео:
кодек:
розмір кадру: 1920 х 1080
бітрейт: 10 мб/с

Аудіо №1:
мова: українська
озвучення: професійне багатоголосе закадрове
кодек: 5.1
бітрейт: 1 509 кб/с

Озвучено студією "НеЗупиняйПродакшн"


Аудіо №2:
мова: англійська (оригінал)
кодек: 5.1
бітрейт: 1 509 кб/с

Субтитри:
мова: англійська
тип: програмні (м'які)
формат: *.srt
Info

Video
ID : 1
Format : AVC
Format/Info : Advanced Video Codec
Format profile : [email protected]
Format settings, CABAC : Yes
Format settings, ReFrames : 4 frames
Codec ID : V_MPEG4/ISO/AVC
Duration : 1 h 8 min
Bit rate : 9 988 kb/s
Width : 1 920 pixels
Height : 1 080 pixels
Display aspect ratio : 16:9
Frame rate mode : Constant
Frame rate : 23.976 (24000/1001) FPS
Color space : YUV
Chroma subsampling : 4:2:0
Bit depth : 8 bits
Scan type : Progressive
Bits/(Pixel*Frame) : 0.201
Stream size : 4.74 GiB (77%)
Writing library : core 152 r2851 ba24899
Encoding settings : cabac=1 / ref=4 / deblock=1:-3:-3 / analyse=0x3:0x113 / me=umh / subme=8 / psy=1 / psy_rd=1.00:0.00 / mixed_ref=1 / me_range=32 / chroma_me=1 / trellis=1 / 8x8dct=1 / cqm=0 / deadzone=21,11 / fast_pskip=1 / chroma_qp_offset=-2 / threads=6 / lookahead_threads=1 / sliced_threads=0 / nr=0 / decimate=1 / interlaced=0 / bluray_compat=0 / constrained_intra=0 / bframes=3 / b_pyramid=2 / b_adapt=2 / b_bias=0 / direct=3 / weightb=1 / open_gop=0 / weightp=2 / keyint=240 / keyint_min=24 / scenecut=40 / intra_refresh=0 / rc_lookahead=50 / rc=2pass / mbtree=1 / bitrate=9988 / ratetol=1.0 / qcomp=0.60 / qpmin=0 / qpmax=69 / qpstep=4 / cplxblur=20.0 / qblur=0.5 / ip_ratio=1.40 / aq=3:0.80
Default : Yes
Forced : No

Audio #1
ID : 2
Format :
Format/Info : Digital Theater Systems
Mode : 16
Format settings, Endianness : Big
Codec ID : A_DTS
Duration : 1 h 8 min
Bit rate mode : Constant
Bit rate : 1 510 kb/s
Channel(s) : 6 channels
Channel positions : Front: L C R, Side: L R, LFE
Sampling rate : 48.0 kHz
Frame rate : 93.750 FPS (512 spf)
Bit depth : 24 bits
Compression mode : Lossy
Stream size : 735 MiB (12%)
Title : Українська (НеЗупиняйПродакшн)
Language : Ukrainian
Default : Yes
Forced : No

Audio #2
ID : 3
Format :
Format/Info : Digital Theater Systems
Mode : 16
Format settings, Endianness : Big
Codec ID : A_DTS
Duration : 1 h 8 min
Bit rate mode : Constant
Bit rate : 1 509 kb/s
Channel(s) : 6 channels
Channel positions : Front: L C R, Side: L R, LFE
Sampling rate : 48.0 kHz
Frame rate : 93.750 FPS (512 spf)
Bit depth : 24 bits
Compression mode : Lossy
Stream size : 734 MiB (12%)
Language : English
Default : No
Forced : No

Text #1
ID : 4
Format : UTF-8
Codec ID : S_TEXT/UTF8
Codec ID/Info : UTF-8 Plain Text
Duration : 1 h 4 min
Bit rate : 43 b/s
Count of elements : 699
Stream size : 20.4 KiB (0%)
Language : English
Default : No
Forced : No

Text #2
ID : 5
Format : UTF-8
Codec ID : S_TEXT/UTF8
Codec ID/Info : UTF-8 Plain Text
Duration : 1 h 4 min
Bit rate : 48 b/s
Count of elements : 798
Stream size : 22.8 KiB (0%)
Title : SDH
Language : English
Default : No
Forced : No

Menu
00:00:00.000 : en:00:00:00.000
00:04:48.205 : en:00:04:48.205
00:08:42.313 : en:00:08:42.313
00:12:34.796 : en:00:12:34.796
00:17:47.400 : en:00:17:47.400
00:20:44.577 : en:00:20:44.577
00:26:18.452 : en:00:26:18.452
00:29:04.743 : en:00:29:04.743
00:33:27.797 : en:00:33:27.797
00:38:26.137 : en:00:38:26.137
00:42:30.339 : en:00:42:30.339
00:46:55.229 : en:00:46:55.229
00:52:56.924 : en:00:52:56.924
00:59:09.504 : en:00:59:09.504
01:02:21.988 : en:01:02:21.988
01:06:58.848 : en:01:06:58.848
Скріншоти








Переклад і озвучення виконано за підтримки fishMD


Український трейлер




Авторський реліз (завантажувати можна без реєстрації)
 Трекер:    Зареєстрований   

Завантажити / скачати серіал українською



відео для новачків



 Зареєстрований:   2017-12-13 20:02
 Розмір:   24.26 GB 
 Оцінка серіалу:   9.8/10 (Голосів: 8)
   
Electroz 
Відео Гуртом - підтримка та поширення
Відео Гуртом - підтримка та поширення


З нами з: 18.09.14
Востаннє: 16.12.17
Повідомлень: 2016

2017-12-02 16:06  
На якій стадії озвучення?
НеЗупиняйПродакшн 
Відео Гуртом - озвучення
Відео Гуртом - озвучення


З нами з: 28.07.15
Востаннє: 15.12.17
Повідомлень: 523

2017-12-02 16:10  
Electroz написано:
На якій стадії озвучення?

На стадії зведення.

demetrius52 
Свій


З нами з: 02.04.17
Востаннє: 16.12.17
Повідомлень: 99

2017-12-02 17:57  
а трейлер озвучений є?
НеЗупиняйПродакшн 
Відео Гуртом - озвучення
Відео Гуртом - озвучення


З нами з: 28.07.15
Востаннє: 15.12.17
Повідомлень: 523

2017-12-03 19:26  
demetrius52 написано:
а трейлер озвучений є?

Завтра буде.

Bod_zik99 
VIP


З нами з: 28.12.13
Востаннє: 16.12.17
Повідомлень: 1282

2017-12-03 19:39  
НеЗупиняйПродакшн
Що там з "Mindhunter'ом"?

QUARESMA177 
VIP


З нами з: 27.04.09
Востаннє: 16.12.17
Повідомлень: 424

2017-12-04 09:25  
НеЗупиняйПродакшн
а з Містером Мерседесом?

Roman7Fedorak 
Частий відвідувач


З нами з: 30.03.12
Востаннє: 15.12.17
Повідомлень: 43

2017-12-04 21:17  
Краще б Каратель(
НеЗупиняйПродакшн 
Відео Гуртом - озвучення
Відео Гуртом - озвучення


З нами з: 28.07.15
Востаннє: 15.12.17
Повідомлень: 523

2017-12-05 00:04  
Додали в шапку український трейлер.
bot 
робот


З нами з: 30.09.07
Востаннє: 26.05.05
Повідомлень: 17895

2017-12-06 11:43  
Тему перенесено з Анонси релізів до форуму Серіали в HD


НеЗупиняйПродакшн

НеЗупиняйПродакшн 
Відео Гуртом - озвучення
Відео Гуртом - озвучення


З нами з: 28.07.15
Востаннє: 15.12.17
Повідомлень: 523

2017-12-06 11:44  
Додано 1 серію

NeetScrool 
Відео Гуртом - фільмокрай
Відео Гуртом - фільмокрай


З нами з: 10.01.13
Востаннє: 15.12.17
Повідомлень: 2720

2017-12-07 10:38  
Roman7Fedorak написано:
Краще б Каратель(

Цитата:
Переклад і озвучення виконано за підтримки fishMD

Дасте 20 тисяч гривень і буде вам Каратель.

НеЗупиняйПродакшн 
Відео Гуртом - озвучення
Відео Гуртом - озвучення


З нами з: 28.07.15
Востаннє: 15.12.17
Повідомлень: 523

2017-12-07 19:41  
Дoдано 2 серію

НеЗупиняйПродакшн 
Відео Гуртом - озвучення
Відео Гуртом - озвучення


З нами з: 28.07.15
Востаннє: 15.12.17
Повідомлень: 523

2017-12-09 18:09  
Додано 3 серію

Son_of_Anarchy 
Свій


З нами з: 20.02.12
Востаннє: 16.12.17
Повідомлень: 50

2017-12-10 23:15  
Це той серіал про який не варто судити поки не подивишся до кінця. Це неймовірно безумна круть!
НеЗупиняйПродакшн 
Відео Гуртом - озвучення
Відео Гуртом - озвучення


З нами з: 28.07.15
Востаннє: 15.12.17
Повідомлень: 523

2017-12-11 10:46  
Додано 4 серію

Roman7Fedorak 
Частий відвідувач


З нами з: 30.03.12
Востаннє: 15.12.17
Повідомлень: 43

2017-12-13 12:10  
NeetScrool
Дав якщо б мав (

НеЗупиняйПродакшн 
Відео Гуртом - озвучення
Відео Гуртом - озвучення


З нами з: 28.07.15
Востаннє: 15.12.17
Повідомлень: 523

2017-12-13 20:03  
Дoдано 5 серію

Ваш часовий пояс: GMT + 2 Години

Нова тема   Відповісти