Матриця часу / Before I Fall (2017) Remux 1080p Ukr/Eng | Sub Eng/Spa

Нові коментарі

Нова тема   Відповісти
Автор Повідомлення
IronBee 
Поважний учасник


З нами з: 08.02.10
Востаннє: 24.05.19
Повідомлень: 219

2017-12-02 14:18  
Матриця часу / Before I Fall (2017) Remux 1080p Ukr/Eng | Sub Eng/Spa

Матриця часу / Before I Fall (2017) Remux 1080p Ukr/Eng | Sub Eng/Spa


Жанр: детектив, драма
Країна: США



Кінокомпанія: Open Road Films, Awesomeness Films
Режисер: Рі Руссо-Янг
Актори: Зої Дойч, Хелстон Сейдж, Логан Міллер, Кіан Лоулі, Лів Г'юсон, Олена Кампуріс, Синті Ву, Еріка Тремблей, Дієго Бонета, Дженніфер Білз та інші

Сюжет:
Ви ніколи не замислювалися як би провели день, знаючи, що він останній у вашому житті? Подібні думки ніколи не відвідували старшокласницю Сем. Дівчину цілком влаштовує її життя. Вона і її подруги – найпопулярніші дівчата в школі. Прокинувшись вранці 12 лютого, Сем була впевнена, що попереду на неї чекає захоплюючий день. І він був таким. Але повертаючись додому з вечірки подруги потрапляють в аварію, в якій напевно всі повинні загинути. Але Сем прокидається в своєму ліжку. І на календарі знову 12 лютого. День міг би стати таким само безтурботним і легким, як і всі попередні. Але тепер дівчина знає, що ввечері загине.


Тривалість: 01:38:47
Якість: Remux
Відео:
кодек:
розмір кадру: 1920 х 1080
бітрейт: 31.6 Mб/с

Аудіо # 1:
мова: українська (MEGOGO.NET)
переклад: багатоголосий закадровий
кодек: 2.0
бітрейт: 192 кб/с

Аудіо # 2:
мова: англійська
переклад: оригінал
кодек: -HD MA 5.1
бітрейт: 3563 кб/с

Субтитри # 1:
мова: англійська (Full)
тип: пререндерні
формат: *.PGS

Субтитри # 2:
мова: іспанська (Full)
тип: пререндерні
формат: *.PGS
Info
General
Unique ID : 179829669313202494536867738956395251668 (0x8749EF3B85273E358466F2A9C1D507D4)
Complete name : E:\Films\Матриця часу Before I Fall (2017) Remux 1080p UkrEng Sub Eng[Hurtom].
Format :
Format version : Version 4 / Version 2
File size : 24.4 GiB
Duration : 1 h 38 min
Overall bit rate mode : Variable
Overall bit rate : 35.4 Mb/s
Encoded date : UTC 2017-11-30 21:10:58
Writing application : v18.0.0 ('Apricity') 64-bit
Writing library : libebml v1.3.5 + v1.4.8

Video
ID : 1
Format : AVC
Format/Info : Advanced Video Codec
Format profile : [email protected]
Format settings : CABAC / 4 Ref Frames
Format settings, CABAC : Yes
Format settings, ReFrames : 4 frames
Codec ID : V_MPEG4/ISO/AVC
Duration : 1 h 38 min
Bit rate mode : Variable
Bit rate : 31.6 Mb/s
Maximum bit rate : 35.0 Mb/s
Width : 1 920 pixels
Height : 1 080 pixels
Display aspect ratio : 16:9
Frame rate mode : Constant
Frame rate : 23.976 (24000/1001) FPS
Color space : YUV
Chroma subsampling : 4:2:0
Bit depth : 8 bits
Scan type : Progressive
Bits/(Pixel*Frame) : 0.636
Stream size : 21.8 GiB (89%)
Default : Yes
Forced : No

Audio #1
ID : 2
Format : AC-3
Format/Info : Audio Coding 3
Codec ID : A_AC3
Duration : 1 h 38 min
Bit rate mode : Constant
Bit rate : 192 kb/s
Channel(s) : 2 channels
Channel positions : Front: L R
Sampling rate : 48.0 kHz
Frame rate : 31.250 FPS (1536 SPF)
Bit depth : 16 bits
Compression mode : Lossy
Stream size : 136 MiB (1%)
Language : Ukrainian
Service kind : Complete Main
Default : No
Forced : No

Audio #2
ID : 3
Format :
Format/Info : Digital Theater Systems
Format profile : MA / Core
Codec ID : A_DTS
Duration : 1 h 38 min
Bit rate mode : Variable / Constant
Bit rate : 3 563 kb/s / 1 509 kb/s
Channel(s) : 6 channels
Channel positions : Front: L C R, Side: L R, LFE
Sampling rate : 48.0 kHz
Frame rate : 93.750 FPS (512 SPF)
Bit depth : 24 bits
Compression mode : Lossless / Lossy
Stream size : 2.46 GiB (10%)
Language : English
Default : Yes
Forced : No

Text #1
ID : 4
Format : PGS
Muxing mode : zlib
Codec ID : S_HDMV/PGS
Codec ID/Info : Picture based subtitle format used on BDs/HD-DVDs
Duration : 1 h 32 min
Bit rate : 41.1 kb/s
Count of elements : 2793
Stream size : 27.1 MiB (0%)
Language : English
Default : Yes
Forced : No

Text #2
ID : 5
Format : PGS
Muxing mode : zlib
Codec ID : S_HDMV/PGS
Codec ID/Info : Picture based subtitle format used on BDs/HD-DVDs
Duration : 1 h 37 min
Bit rate : 29.6 kb/s
Count of elements : 2370
Stream size : 20.7 MiB (0%)
Language : Spanish
Default : No
Forced : No

Menu
00:00:00.000 : en:Chapter 01
00:05:23.448 : en:Chapter 02
00:10:13.321 : en:Chapter 03
00:14:14.520 : en:Chapter 04
00:22:23.675 : en:Chapter 05
00:27:21.931 : en:Chapter 06
00:33:41.352 : en:Chapter 07
00:37:41.384 : en:Chapter 08
00:41:21.145 : en:Chapter 09
00:46:37.795 : en:Chapter 10
00:51:22.871 : en:Chapter 11
00:56:48.238 : en:Chapter 12
00:59:33.820 : en:Chapter 13
01:04:07.635 : en:Chapter 14
01:08:31.565 : en:Chapter 15
01:13:09.927 : en:Chapter 16
01:17:50.290 : en:Chapter 17
01:21:09.531 : en:Chapter 18
01:25:44.180 : en:Chapter 19
01:33:19.594 : en:Chapter 20
Скріншоти



Джерело: &
Особиста оцінка: 0 - не дивився


Золотий реліз (завантажене не впливає на рейтинг)
 Трекер:    Зареєстрований   

Завантажити / скачати фільм українською



відео для новачків



 Зареєстрований:   2017-12-02 14:18
 Розмір:   24.42 GB 
 Оцінка фільму:   8.7/10 (Голосів: 15)
   
Інші релізи
   Матриця часу / Before I Fall (2017) 1080p H.265 Ukr/Eng | Sub Eng ukr_anonymous  1 / 0   2.65 GB   2018-05-16 17:05 
   Матриця часу / Before I Fall (2017) 1080p Ukr/Eng | Sub Eng staf777  5 / 0   7.96 GB   2018-01-26 10:51 
   Матриця часу / Before I Fall (2017) Ukr/Eng | Sub Eng sokeel  7 / 0   1.84 GB   2017-11-22 13:02 
   Матриця часу / Before I Fall (2017) igor911  13 / 1   1.37 GB   2017-10-13 08:31 
   Матриця часу / Before I Fall (2017) 720p Ukr/Eng | Sub Eng 11FrYkT  24 / 0   4.14 GB   2017-10-12 20:06 
   Матриця часу / Before I Fall (2017) AVC Ukr/Eng | Sub Eng Electroz  24 / 0   1.3 GB   2017-10-11 20:31 
Sacramental 
Частий відвідувач


З нами з: 24.11.16
Востаннє: 23.05.19
Повідомлень: 43

2017-12-02 19:09  
А мені сподобався)))
Uberwinder 
VIP


З нами з: 18.11.16
Востаннє: 25.05.19
Повідомлень: 277

2017-12-03 11:52  
Фільм багато у чому підлітковий, у цілому посередній, але після перегляду залишив про себе досить непогане враження.
ryder2 
Новенький


З нами з: 02.11.17
Востаннє: 29.03.19
Повідомлень: 6

2017-12-03 14:17  
по опису схоже на день сурка
Rabotnik UA 
Новенький


З нами з: 31.08.15
Востаннє: 21.05.19
Повідомлень: 21

2017-12-03 16:27  
ryder2
за описом схоже на "день бабака"?

Wowatorrent 
Поважний учасник


З нами з: 24.03.16
Востаннє: 25.05.19
Повідомлень: 164

2017-12-06 03:10  
Кіно сподобалося, можливо тому, що актриса подобається.
anjimed 
Новенький


З нами з: 07.05.13
Востаннє: 24.05.19
Повідомлень: 2

2018-02-02 15:59  
Thank you ! Remux

Wowatorrent +1 zoey
Tongue out (1) Happy

ОЧІКУЮ FLOWER )))))))))))

Ваш часовий пояс: GMT + 2 Години

Нова тема   Відповісти