Гвардія 2 (Сезон 2) (2017) 1080p

Нові коментарі

Нова тема   Відповісти
Автор Повідомлення
sergiyko.5 
Забанено
Забанено


З нами з: 25.02.16
Востаннє: 29.10.20
Повідомлень: 3650

2017-12-02 09:23  
Гвардія 2 (Сезон 2) (2017) 1080p

Гвардія 2 (Сезон 2) (2017) 1080p

Жанр: драма, воєнний
Країна: Україна
Кінокомпанія: 2+2
Режисер: Олексій Шапарев
Актори: Олексій Горбунов; Анна Топчій; Дмитро Ступка; Ахтем Сеїтаблаєв; Денис Гранчак; Константин Шафоренко; Вано Янтбелідзе; Вікторія Токманенко та інші.

Сюжет:
Гвардія 2 - це двосерійний телефільм про групу розвідників, які захищають українські землі від російської агресії в найзапекліший період протистояння на Сході України.
Всі події фільму розгортаються навколо розвідгрупи на чолі з колишнім афганцем з позивним "Дід". Вчорашні новобранці стають професійними розвідниками і йдуть на нове завдання. У минулому - бізнесмен, чемпіонка зі стрільби, вчений-хімік, запорізький слюсар і доброволець з Криму стають досвідченими бійцями, які знають, що таке війна і біль від втрати близьких друзів. З'являється інформація про можливість повномасштабного вторгнення російських військ і підготовку кривавого теракту в прифронтовому місті, з боку окупантів. Команда "Діда" вступає в битву, щоб запобігти страшній трагедії серед мирного населення і виявити "крота" - організатора теракту.


Тривалість: 1 серія: 45:15 (цілком серій: 2)
Якість:

Відео: кодек: розмір кадру: 1920х1080 бітрейт: 4000 кб/с
Аудіо: мова: українська, російська переклад: оригінал кодек: 2.0 бітрейт: 192 кб/с
Перелік серій
1 серія
2 серія
Про файл:

General
Unique ID : 181774908372640276436163176527144563228 (0x88C092EC3EB31016A631777792F2321C)
Complete name : D:\Torrents\FILMS\Гвардія 2 1080p\Гвардія.2.S02E01..1080p.
Format :
Format version : Version 4 / Version 2
File size : 1.33 GiB
Duration : 45 min 15 s
Overall bit rate : 4 193 kb/s
Encoded date : UTC 2017-11-17 19:06:14
Writing application : v17.0.0 ('Be Ur Friend') 64-bit
Writing library : libebml v1.3.5 + v1.4.8

Video
ID : 1
Format : AVC
Format/Info : Advanced Video Codec
Format profile : [email protected]
Format settings, CABAC : Yes
Format settings, RefFrames : 3 frames
Codec ID : V_MPEG4/ISO/AVC
Duration : 45 min 15 s
Bit rate : 3 999 kb/s
Width : 1 920 pixels
Height : 1 080 pixels
Display aspect ratio : 16:9
Frame rate mode : Constant
Frame rate : 25.000 FPS
Color space : YUV
Chroma subsampling : 4:2:0
Bit depth : 8 bits
Scan type : Progressive
Bits/(Pixel*Frame) : 0.077
Stream size : 1.26 GiB (95%)
Default : Yes
Forced : No

Audio
ID : 2
Format :
Format/Info : Advanced Audio Codec
Format profile : LC
Codec ID : A_AAC
Duration : 45 min 15 s
Bit rate : 192 kb/s
Channel(s) : 2 channels
Channel positions : Front: L R
Sampling rate : 44.1 kHz
Frame rate : 43.066 FPS (1024 SPF)
Compression mode : Lossy
Stream size : 62.1 MiB (5%)
Default : Yes
Forced : No
Скріншоти:


Золотий реліз (завантажене не впливає на рейтинг)
 Трекер:    Зареєстрований   

Завантажити / скачати український серіал



відео для новачків



 Зареєстрований:   2017-12-02 09:23
 Розмір:   2.65 GB 
 Оцінка серіалу:   9/10 (Голосів: 45)
   
vilasipet 
Частий відвідувач


З нами з: 19.06.14
Востаннє: 04.12.20
Повідомлень: 49

2018-03-01 21:56  
7ка, відчутний бюджет, але все норм, треба більше такої теми в ефірі
Roman7Fedorak 
Свій


З нами з: 30.03.12
Востаннє: 05.12.20
Повідомлень: 136

2018-05-19 09:09  
Тільки 2 серії ?
komval 
Новенький


З нами з: 12.05.11
Востаннє: 05.12.20
Повідомлень: 6

2018-05-22 12:12  
Гарний фільм. Варто подивитися.
У той час як одні віддають життя за Україну, інші продають її де тільки можуть.

hetzendorf 
Попереджень: 2
Попереджень: 2 


З нами з: 23.07.15
Востаннє: 05.12.20
Повідомлень: 2942

2018-06-13 00:38  
1 сезон мені сподобався більше, тут якось дещо затягнуто й водночас фрагментовано.
8/10

MykhayloМ 
Поважний учасник


З нами з: 05.01.13
Востаннє: 30.11.20
Повідомлень: 172

2018-06-19 00:01  
hetzendorf
Дякую за підказку про пошук другого сезону "Гвардії" ! Happy

sshevch 
Новенький


З нами з: 16.11.10
Востаннє: 04.12.20
Повідомлень: 17

2020-08-13 14:24  
ЗАбагато драми. Всі загинули. ПОтрібно більш оптимістично. Думаю плани були великі. Але іх не впровадили у життя, нажаль. Перший сезон сподобався більше.
Ваш часовий пояс: GMT + 2 Години

Нова тема   Відповісти