Реальна білка 2 / The Nut Job 2: Nutty by Nature (2017) 720p 2xUkr/Eng | Sub Eng

Нові коментарі

Нова тема   Відповісти
Автор Повідомлення
Anonymous 







2017-12-02 03:56  
Реальна білка 2 / The Nut Job 2: Nutty by Nature (2017) 720p 2xUkr/Eng | Sub Eng

Реальна білка 2 / The Nut Job 2: Nutty by Nature (2017) 720p 2xUkr/Eng | Sub Eng


Жанр: анімація, комедія, пригодницький, сімейний
Країна: США, Канада, Південна Корея, Китай



Кінокомпанія: Gulfstream Pictures, ToonBox Entertainment, Redrover Co. Ltd.
Режисер: Келлан Брункер / Cal Brunker
Ролі озвучують: Вілл Арнетт / Will Arnett, Кетрін Гейґл / Katherine Heigl, Майя Рудольф / Maya Rudolph, Джекі Чан / Jackie Chan, Ізабела Монер / Isabela Moner, Петер Стормаре / Peter Stormare, Боббі Каннавале / Bobby Cannavale, Боббі Мойнаган / Bobby Moynihan, Ґебріел Іґлесіас / Gabriel Iglesias, Карі Волгрен / Kari Wahlgren та інші

Сюжет:
Після подій першого фільму Злюк та його друзі повинні зупинити мера міста Дубовик від руйнування їх дому, на місці якого він хоче зробити дивний парк розваг.
Офіційний український трейлер:

Рейтинг MPAA: PG - рекомендується присутність батьків
Вікова категорія: 6+
Тривалість: 01:31:13
Якість: 720p
Відео:
кодек:
розмір кадру: 1280x692
бітрейт: 5966 кб/с

Аудіо # 1:
мова: українська
переклад: професійний дубльований | Pie Post Production
кодек: 2.0
бітрейт: 192 кб/с
Інформація про дубляж
Переклад: Лідія Громовенко
Режисер дубляжу: Лідія Громовенко
Звукорежисер: Олег Тарасенко
Звукорежисер перезапису: Віталій Ящук
Ролі дублювали: Андрій Твердак, Дарина Муращенко, Михайло Кришталь, Ганна Соболєва, Дмитро Завадський, Олексій Череватенко, Ольга Радчук, Катерина Брайковська, Олександр Погребняк, Володимир Терещук, Сергій Солопай, Володимир Плахов, Віктор Данилюк та інші.
Фільм дубльовано студією Pie Post Production на замовлення компанії Ukrainian Film Distribution.
Аудіо # 2:
мова: українська
переклад: багатоголосий закадровий
кодек: 2.0 [стерео]
бітрейт: 192 кб/с
Інформація про озвучення:
Ролі озвучили: Євген Пашин, Володимир Терещук, Андрій Соболєв та один жіночий голос
Аудіо # 3:
мова: англійська
переклад: оригінал
кодек: 5.1
бітрейт: 448 кб/с

Субтитри # 1-3:
мова: англійська (повні, SDH, SDH кольорові)
тип: програмні (м'які)
формат: *.srt

Збережено оригінальні розділи, як на Blu-ray
Info
Код:
Complete name               : The Nut Job 2 Nutty by Nature (2017) [2xUkr,Eng sub.Eng] 720p [Hurtom].
Format                      :
Format version              : Version 4 / Version 2
File size                   : 4.33 GiB
Duration                    : 1 h 31 min
Overall bit rate            : 6 790 kb/s
Movie name                  : Реальна білка 2 / The Nut Job 2: Nutty by Nature (2017) [2xUkr,Eng sub.Eng] 720p [Hurtom]
Released date               : 2017
Encoded date                : UTC 2018-04-26 16:36:06
Writing application         : v22.0.0 ('At The End Of The World') 64-bit
Writing library             : libebml v1.3.5 + v1.4.8
Cover                       : Yes
Comment                     : http://www.imdb.com/title/tt3486626/
Attachments                 : cover.jpg
ARTIST                      : Вілл Арнетт / Will Arnett, Кетрін Гейґл / Katherine Heigl, Майя Рудольф / Maya Rudolph, Джекі Чан / Jackie Chan, Ізабела Монер / Isabela Moner, Петер Стормаре / Peter Stormare, Боббі Каннавале / Bobby Cannavale, Боббі Мойнаган / Bobby Moynihan, Ґебріел Іґлесіас / Gabriel Iglesias, Карі Волгрен / Kari Wahlgren та інші
DIRECTOR                    : Келлан Брункер / Cal Brunker
GENRE                       : анімація, комедія, пригодницький, сімейний
SYNOPSIS                    : Після подій першого фільму Злюк та його друзі повинні зупинити мера міста Дубовик від руйнування їх дому, на місці якого він хоче зробити дивний парк розваг...
Url                         : https://toloka.to/t85571

Video
ID                          : 1
Format                      : AVC
Format/Info                 : Advanced Video Codec
Format profile              : [email protected]
Format settings             : CABAC / 9 Ref Frames
Format settings, CABAC      : Yes
Format settings, ReFrames   : 9 frames
Codec ID                    : V_MPEG4/ISO/AVC
Duration                    : 1 h 31 min
Bit rate                    : 5 966 kb/s
Width                       : 1 280 pixels
Height                      : 692 pixels
Display aspect ratio        : 1.85:1
Frame rate mode             : Constant
Frame rate                  : 23.976 (24000/1001) FPS
Color space                 : YUV
Chroma subsampling          : 4:2:0
Bit depth                   : 8 bits
Scan type                   : Progressive
Bits/(Pixel*Frame)          : 0.281
Stream size                 : 3.80 GiB (88%)
Title                       : Реальна білка 2 / The Nut Job 2: Nutty by Nature (2017) 720p [Hellywood - potroks]
Writing library             : core 152 r2851M ba24899
Encoding settings           : cabac=1 / ref=9 / deblock=1:-1:-1 / analyse=0x3:0x132 / me=umh / subme=11 / psy=1 / psy_rd=1.05:0.10 / mixed_ref=1 / me_range=48 / chroma_me=1 / trellis=2 / 8x8dct=1 / cqm=0 / deadzone=21,11 / fast_pskip=0 / chroma_qp_offset=-3 / threads=9 / lookahead_threads=2 / sliced_threads=0 / nr=0 / decimate=0 / interlaced=0 / bluray_compat=0 / constrained_intra=0 / bframes=12 / b_pyramid=2 / b_adapt=2 / b_bias=0 / direct=3 / weightb=1 / open_gop=0 / weightp=2 / keyint=240 / keyint_min=23 / scenecut=40 / intra_refresh=0 / rc_lookahead=0 / rc=2pass / mbtree=0 / bitrate=5966 / ratetol=1.0 / qcomp=0.70 / qpmin=0 / qpmax=69 / qpstep=4 / cplxblur=20.0 / qblur=0.5 / vbv_maxrate=50000 / vbv_bufsize=35714 / nal_hrd=none / filler=0 / ip_ratio=1.40 / pb_ratio=1.30 / aq=1:0.70
Language                    : English
Default                     : Yes
Forced                      : No

Audio #1
ID                          : 2
Format                      : AC-3
Format/Info                 : Audio Coding 3
Codec ID                    : A_AC3
Duration                    : 1 h 31 min
Bit rate mode               : Constant
Bit rate                    : 192 kb/s
Channel(s)                  : 2 channels
Channel positions           : Front: L R
Sampling rate               : 48.0 kHz
Frame rate                  : 31.250 FPS (1536 SPF)
Bit depth                   : 16 bits
Compression mode            : Lossy
Stream size                 : 125 MiB (3%)
Title                       : Dub [Pie Post Production, Line] 2.0 192 Kbps [Hurtom-Covenant]
Language                    : Ukrainian
Service kind                : Complete Main
Default                     : Yes
Forced                      : Yes

Audio #2
ID                          : 3
Format                      : AC-3
Format/Info                 : Audio Coding 3
Codec ID                    : A_AC3
Duration                    : 1 h 31 min
Bit rate mode               : Constant
Bit rate                    : 192 kb/s
Channel(s)                  : 2 channels
Channel positions           : Front: L R
Sampling rate               : 48.0 kHz
Frame rate                  : 31.250 FPS (1536 SPF)
Bit depth                   : 16 bits
Compression mode            : Lossy
Stream size                 : 125 MiB (3%)
Title                       : MVO [Volya Cine+] 2.0 192 Kbps
Language                    : Ukrainian
Service kind                : Complete Main
Default                     : No
Forced                      : No

Audio #3
ID                          : 4
Format                      : AC-3
Format/Info                 : Audio Coding 3
Codec ID                    : A_AC3
Duration                    : 1 h 31 min
Bit rate mode               : Constant
Bit rate                    : 448 kb/s
Channel(s)                  : 6 channels
Channel positions           : Front: L C R, Side: L R, LFE
Sampling rate               : 48.0 kHz
Frame rate                  : 31.250 FPS (1536 SPF)
Bit depth                   : 16 bits
Compression mode            : Lossy
Stream size                 : 292 MiB (7%)
Title                       : Original, 5.1 448 kbps
Language                    : English
Service kind                : Complete Main
Default                     : No
Forced                      : No

Text #1
ID                          : 5
Format                      : UTF-8
Codec ID                    : S_TEXT/UTF8
Codec ID/Info               : UTF-8 Plain Text
Duration                    : 1 h 22 min
Bit rate                    : 66 b/s
Count of elements           : 1450
Stream size                 : 40.3 KiB (0%)
Title                       : Eng Full
Language                    : English
Default                     : No
Forced                      : No

Text #2
ID                          : 6
Format                      : UTF-8
Codec ID                    : S_TEXT/UTF8
Codec ID/Info               : UTF-8 Plain Text
Duration                    : 1 h 29 min
Bit rate                    : 72 b/s
Count of elements           : 1767
Stream size                 : 47.6 KiB (0%)
Title                       : Eng SDH
Language                    : English
Default                     : No
Forced                      : No

Text #3
ID                          : 7
Format                      : UTF-8
Codec ID                    : S_TEXT/UTF8
Codec ID/Info               : UTF-8 Plain Text
Duration                    : 1 h 30 min
Bit rate                    : 138 b/s
Count of elements           : 1667
Stream size                 : 91.6 KiB (0%)
Title                       : Eng SDH-Colored
Language                    : English
Default                     : No
Forced                      : No

Menu
00:00:00.000                : en:1
00:09:27.000                : en:2
00:19:44.000                : en:3
00:28:20.000                : en:4
00:36:35.000                : en:5
00:47:52.000                : en:6
00:58:57.000                : en:7
01:06:56.000                : en:8
01:16:29.000                : en:9
01:27:54.000                : en:10


Джерело: &
Подяка Covenant'у та troubless за дубляж, Sando7 та -_-В_E_N_D_E_R-_- за доріжку №2

26.04.2018 реліз оновлено - додано озвучення з


 Трекер:    Зареєстрований   

Завантажити / скачати мультфільм українською



відео для новачків



 Зареєстрований:   2018-04-26 23:04
 Розмір:   4.33 GB 
 Оцінка мультфільму:   6.8/10 (Голосів: 36)
   
demetrius52 
VIP


З нами з: 02.04.17
Востаннє: 04.02.20
Повідомлень: 264

2017-12-03 17:36  
Anonymous
подумав, що у вас часу немає, тож вирішів підсобити
про дубляж
Переклад: Лідія Громовенко
Режисер дубляжу: Лідія Громовенко
Звукорежисер: Олег Тарасенко
Звукорежисер перезапису: Віталій Ящук
Ролі дублювали: Андрій Твердак, Дарина Муращенко, Михайло Кришталь, Ганна Соболєва, Дмитро Завадський, Олексій Череватенко, Ольга Радчук, Катерина Брайковська, Олександр Погребняк, Володимир Терещук, Сергій Солопай, Володимир Плахов, Віктор Данилюк та інші.
Фільм дубльовано студією Pie Post Production на замовлення компанії Ukrainian Film Distribution.

Anonymous 







2017-12-04 09:33  
demetrius52, дякую.
sergej001 
Новенький


З нами з: 14.11.13
Востаннє: 27.06.19
Повідомлень: 12

2018-01-21 19:37  
vovang6
перша частина доволі непогана була і смішна, недооцінений мультик. другу зараз подивлюсь)

Anonymous 







2018-04-26 23:12  
Реліз оновлено - додано доріжку з


Додано через 6 хвилин 11 секунд:

"золото" на тиждень для заохочення підтримки

Ваш часовий пояс: GMT + 2 Години

Нова тема   Відповісти