За службовими обов'язками / Line of Duty (Сезон 1-4) (2012) /HDTV 1080p Ukr/Eng | Sub Eng

Нові коментарі

Нова тема   Відповісти
Останній раз роздавалося SergieK (2020-12-04)
Автор Повідомлення
sergiyko.5 
Забанено
Забанено


З нами з: 25.02.16
Востаннє: 29.10.20
Повідомлень: 3650

2017-12-01 17:56  
За службовими обов'язками / Line of Duty (Сезон 1-4) (2012) /HDTV 1080p Ukr/Eng | Sub Eng

За службовими обов'язками / Line of Duty (Сезон 1-4) (2012) /HDTV 1080p Ukr/Eng | Sub Eng

Жанр: трилер, драма, кримінал
Країна: Велика Британія
Кінокомпанія: Content Television
Режисер: Девід Кефрі, Дуглас Маккінон
Актори: Ленні Джеймс, Мартін Компстон, Вікі МакКлюр, Едріан Данбар, Крейг Паркінсон, Кейт Ешфілд, Клер Кілен, Оуен Тіл, Джина МакКі, Ніл Моріссей, Хізер Крейні

Озвучення: Студія ТВ+
Текст читали: Ольга Гриськова та Олександр Фурман


Сюжет:
Британський серіал розповідає про трудові дні БК-12 - підрозділу Британської поліції по боротьбі з корупцією. Стіва Арнота переводять в цей відділ після жахливої перестрілки під час антитерористичної операції, яка закінчилася загибеллю людини. Також у центрі подій серйозне розслідування констебля Кейт Флемінг, яка призначена керівником у справі про передбачувану корупцію з боку головного детектива-інспектора Тоні Гейтса. Але Арнот переконаний - за Гейтсом стоять куди більш серйозні фігури, і, щоб допомогти Гейтсу позбавитися від контролю кримінальних авторитетів, Стіву не може нікому розповісти про свої підозри, навіть напарникам, діючи на свій страх і ризик ...




Тривалість: 1 серія: 58:48 (цілком серій: 5+6+6+6)
Якість: (сезон 4 - HDTV)

Відео: кодек: розмір кадру: 1920 х 1080 бітрейт: 6000 кб/с
Аудіо # 1: мова: українська переклад: двоголосий закадровий кодек: 2.0 бітрейт: 192 кб/с
Аудіо # 2: мова: англійська переклад: оригінал кодек: 5.1 бітрейт: 384 кб/с
Субтитри: мова: англійська тип: програмні (м'які) формат: *.srt
Перелік серій:
Episode #1.1
Episode #1.2
Episode #1.3
Episode #1.4
Episode #1.5

Episode #2.1
Episode #2.2
Episode #2.3
Episode #2.4
Episode #2.5
Episode #2.6

Episode #3.1
Episode #3.2
Episode #3.3
Episode #3.4
Episode #3.5
Episode #3.6

Episode #4.1
Episode #4.2
Episode #4.3
Episode #4.4
Episode #4.5
Episode #4.6
Про файл:
General
Unique ID : 243207447365185507593186622730196410702 (0xB6F80CF15C206281BE8E5544EAE2E14E)
Complete name : D:\Torrents\FILMS\Line of Duty 1080p \Line of Duty S01 1080p \Line.of.Duty.S01E01.1080p..Ukr.Eng.
Format :
Format version : Version 4 / Version 2
File size : 2.73 GiB
Duration : 58 min 47 s
Overall bit rate : 6 655 kb/s
Movie name : Line of Duty S01 1080p by sergiyko
Encoded date : UTC 2017-12-01 15:39:07
Writing application : v18.0.0 ('Apricity') 64-bit
Writing library : libebml v1.3.5 + v1.4.8

Video
ID : 1
Format : AVC
Format/Info : Advanced Video Codec
Format profile : [email protected]
Format settings, CABAC : Yes
Format settings, RefFrames : 4 frames
Codec ID : V_MPEG4/ISO/AVC
Duration : 58 min 47 s
Bit rate : 6 076 kb/s
Width : 1 920 pixels
Height : 1 080 pixels
Display aspect ratio : 16:9
Frame rate mode : Constant
Frame rate : 25.000 FPS
Color space : YUV
Chroma subsampling : 4:2:0
Bit depth : 8 bits
Scan type : Progressive
Bits/(Pixel*Frame) : 0.117
Stream size : 2.50 GiB (91%)
Title : S01E01
Writing library : core 146 r2538 121396c
Encoding settings : cabac=1 / ref=4 / deblock=1:-3:-3 / analyse=0x3:0x133 / me=umh / subme=7 / psy=1 / psy_rd=1.00:0.15 / mixed_ref=1 / me_range=16 / chroma_me=1 / trellis=1 / 8x8dct=1 / cqm=0 / deadzone=21,11 / fast_pskip=0 / chroma_qp_offset=-3 / threads=12 / lookahead_threads=2 / sliced_threads=0 / nr=0 / decimate=1 / interlaced=0 / bluray_compat=0 / constrained_intra=0 / bframes=3 / b_pyramid=2 / b_adapt=1 / b_bias=0 / direct=3 / weightb=1 / open_gop=0 / weightp=2 / keyint=250 / keyint_min=25 / scenecut=40 / intra_refresh=0 / rc_lookahead=40 / rc=crf / mbtree=1 / crf=20.0 / qcomp=0.60 / qpmin=0 / qpmax=69 / qpstep=4 / ip_ratio=1.40 / aq=1:1.00
Language : English
Default : Yes
Forced : No

Audio #1
ID : 2
Format : AC-3
Format/Info : Audio Coding 3
Format settings, Endianness : Big
Codec ID : A_AC3
Duration : 58 min 47 s
Bit rate mode : Constant
Bit rate : 192 kb/s
Channel(s) : 2 channels
Channel positions : Front: L R
Sampling rate : 48.0 kHz
Frame rate : 31.250 FPS (1536 SPF)
Bit depth : 16 bits
Compression mode : Lossy
Stream size : 80.7 MiB (3%)
Title : MOV | Студія ТВ+
Language : Ukrainian
Service kind : Complete Main
Default : Yes
Forced : Yes

Audio #2
ID : 3
Format : AC-3
Format/Info : Audio Coding 3
Format settings, Endianness : Big
Codec ID : A_AC3
Duration : 58 min 47 s
Bit rate mode : Constant
Bit rate : 384 kb/s
Channel(s) : 6 channels
Channel positions : Front: L C R, Side: L R, LFE
Sampling rate : 48.0 kHz
Frame rate : 31.250 FPS (1536 SPF)
Bit depth : 16 bits
Compression mode : Lossy
Stream size : 161 MiB (6%)
Title : Original
Language : English
Service kind : Complete Main
Default : No
Forced : No

Text
ID : 4
Format : UTF-8
Codec ID : S_TEXT/UTF8
Codec ID/Info : UTF-8 Plain Text
Duration : 56 min 10 s
Bit rate : 63 b/s
Count of elements : 975
Stream size : 26.2 KiB (0%)
Language : English
Default : No
Forced : No

Menu
00:00:00.000 : en:00:00:00.000
00:12:10.280 : en:00:12:10.280
00:20:28.160 : en:00:20:28.160
00:30:59.320 : en:00:30:59.320
00:41:36.800 : en:00:41:36.800
00:51:06.120 : en:00:51:06.120
00:58:07.080 : en:00:58:07.080
Скріншоти:




Запис/зведення: sergiyko


Золотий реліз (завантажене не впливає на рейтинг)
 Трекер:    Зареєстрований   

Завантажити / скачати серіал українською



відео для новачків



 Зареєстрований:   2017-12-31 17:49
 Розмір:   53.5 GB 
 Оцінка серіалу:   9.4/10 (Голосів: 11)
   
sergiyko.5 
Забанено
Забанено


З нами з: 25.02.16
Востаннє: 29.10.20
Повідомлень: 3650

2017-12-20 13:17  
Додав 2-4 сезони.
Victor_Scythian 
VIP


З нами з: 06.01.17
Востаннє: 27.11.19
Повідомлень: 285

2017-12-31 06:06  
2й сезон 5 серія повне неспівпадіння аудіо і відео...

Додано через 21 хвилину 55 секунд:

А так, перші 2 сезони ДУЖЕ сподобались!

sergiyko.5 
Забанено
Забанено


З нами з: 25.02.16
Востаннє: 29.10.20
Повідомлень: 3650

2017-12-31 17:49  
Виправив помилку 5 серії другого сезону.
GoloVA7 
Новенький


З нами з: 13.04.11
Востаннє: 24.11.20
Повідомлень: 1

2020-03-16 11:35  
Доброго дня!
Шановний пане sergiyko.5!
Ще на 3-4 години встаньте на роздачу, будь ласка!
10% залишилось(
Обіцяю бути на роздачі максимально довго.
Дякую!

Ваш часовий пояс: GMT + 2 Години

Нова тема   Відповісти