Відділ аніме-безпеки / Anime Crimes Division [01-03 із 03] [2017] 1080p

Нові коментарі

Нова тема   Відповісти
Автор Повідомлення
Arch Enemy 
Відео Гуртом - озвучення
Відео Гуртом - озвучення


З нами з: 30.08.12
Востаннє: 16.11.18
Повідомлень: 1576

2017-11-30 19:25  
Відділ аніме-безпеки / Anime Crimes Division


Вікове обмеження: 16+ (а також не рекомендовано особам, які мало знайомі зі світом аніме та отаку-культурою).

Країна: США
Період трансляції: з 2017
Жанр: комедія, пародія
Студія: Rocketjump & Crunchyroll

Тривалість однієї серії: ≈10 хв.

Режисер: Дарнел Мерфі, Фреді Вонґ
Актори: ProZD, Wassabi Productions, Lazyron Studios, RileyRoseCritch та інші.

Сюжет: Місто Нео Отаку, місто аніме. Воістину, лише еліті є тут місце. Але і тут існує беззаконня, з яким потрібно боротися. Злісні поганці всіляко паплюжать честь аніме та всього, що з ним пов'язно. І коли черговий аніме-терорист з'являється на обрії, дзвонять не в поліцію! Дзвонять у Відділ аніме-безпеки!

Відео:
якість:
контейнер:
кодек:
частота кадрів: 23.976 кадрів/сек.
розмір кадру: 1920х1080 пікс.
бітрейт: ~1900 кбіт/сек.
бітність: 8 біт

Аудіо:
мова: українська, двоголосе закадрове озвучування
кодек: Vorbis
кількість каналів: 2.0
бітрейт: 256 кбіт/сек.
частота: 48000 Гц

Субтитри:
мова: українська, тільки написи та пояснення.
формат:
тип: програмні, м'які, внутрішні

Джерело озвучення: та

Озвучення: Gwean та Maslinka
Переклад: MadGuy
Робота зі звуком: Gwean

Джерело релізу:
Скріншоти
MI
General
Unique ID : 203614389833003038886470932259330018395 (0x992EB47E13326C90BF73E120797B4C5B)
Complete name : D:\Anime\Anime Crimes\Anime Crimes Division Episode 1, ft. ProZD (UKR).
Format :
Format version : Version 4 / Version 2
File size : 145 MiB
Duration : 9 min 29 s
Overall bit rate mode : Variable
Overall bit rate : 2 138 kb/s
Encoded date : UTC 2017-11-28 19:49:37
Writing application : v7.0.0 ('Where We Going') 32bit built on Jun 9 2014 15:08:34
Writing library : libebml v1.3.0 + v1.4.1
Cover : Yes
Attachments : arial.ttf / arialbd.ttf / BarnaulGrotesk Medium Regular.otf / cover.jpg

Video
ID : 1
Format : AVC
Format/Info : Advanced Video Codec
Format profile : [email protected]
Format settings, CABAC : Yes
Format settings, ReFrames : 3 frames
Codec ID : V_MPEG4/ISO/AVC
Duration : 9 min 28 s
Bit rate : 1 896 kb/s
Width : 1 920 pixels
Height : 1 080 pixels
Display aspect ratio : 16:9
Frame rate mode : Constant
Frame rate : 23.976 FPS
Color space : YUV
Chroma subsampling : 4:2:0
Bit depth : 8 bits
Scan type : Progressive
Bits/(Pixel*Frame) : 0.038
Stream size : 128 MiB (89%)
Default : Yes
Forced : No
Color range : Limited
Color primaries : BT.709
Transfer characteristics : BT.709
Matrix coefficients : BT.709

Audio
ID : 2
Format : Vorbis
Format settings, Floor : 1
Codec ID : A_VORBIS
Duration : 9 min 29 s
Bit rate mode : Variable
Bit rate : 256 kb/s
Channel(s) : 2 channels
Sampling rate : 48.0 kHz
Frame rate : 114.203 FPS (420 spf)
Compression mode : Lossy
Stream size : 14.8 MiB (10%)
Title : двоголосий закадровий від Gwean & Maslinka
Writing application : REAPER
Writing library : libVorbis (Everywhere) (20100325 (Everywhere))
Language : Ukrainian
Default : Yes
Forced : Yes

Text
ID : 3
Format :
Codec ID : S_TEXT/
Codec ID/Info : Advanced Sub Station Alpha
Duration : 7 min 25 s
Bit rate : 43 b/s
Count of elements : 25
Compression mode : Lossless
Stream size : 2.39 KiB (0%)
Title : написи від MadGuy (aniua.com)
Language : Ukrainian
Default : Yes
Forced : Yes

Якщо вам подобаються наші релізи, і є бажання чимось допомогти проекту, то будемо раді, якщо ви підтримаєте нас фінансово. І, якщо хочете подякувати за якесь конкретне аніме, або форсувати процес озвучення, прохання вказати у коментарі до переказу.
Підтримати/подякувати «AniUA»
Підтримати/подякувати «Gwean & Maslinka»
Також у нас можна замовити переклад або озвучення
.


Авторський реліз (завантажувати можна без реєстрації)
 Трекер:    Зареєстрований   

Завантажити / скачати серіал українською



відео для новачків



 Зареєстрований:   2017-12-16 12:50
 Розмір:   407 MB 
 Оцінка серіалу:   9.8/10 (Голосів: 4)
   
11FrYkT 
Модератор відео


З нами з: 20.02.11
Востаннє: 17.11.18
Повідомлень: 5167

2017-12-01 18:38  
Arch Enemy написано:
Актори: ProZD, Wassabi Productions, Lazyron Studios, RileyRoseCritch та інші.

можливо не так і є, але якщо є змога замініть українською

solomon+vedmak+kein 
Частий відвідувач


З нами з: 14.07.12
Востаннє: 16.11.18
Повідомлень: 32

2017-12-01 22:40  
"Обіймашечки"? Калька ж. Обіймочки, Обнімочки)
jaral 
Відео Гуртом - підтримка та поширення
Відео Гуртом - підтримка та поширення


З нами з: 18.10.07
Востаннє: 16.11.18
Повідомлень: 664

2017-12-01 23:34  
solomon+vedmak+kein написано:
Обнімочки
+1
Arch Enemy 
Відео Гуртом - озвучення
Відео Гуртом - озвучення


З нами з: 30.08.12
Востаннє: 16.11.18
Повідомлень: 1576

2017-12-03 00:22  
11FrYkT написано:
можливо не так і є, але якщо є змога замініть українською

Це фан-проект, вони там так і підписані нікнеймами, тож нажаль тільки така інфа.

solomon+vedmak+kein написано:
"Обіймашечки"? Калька ж. Обіймочки, Обнімочки)

"Подушка-обіймашка" - де ви там кальку почули? - що за привиди вам ввижаються? А ще, судячи з ваших слів ви пропонуєте: "Подушка-обіймочка" чи "Подушка-обнімочка" - гарні варіанти, ґуґлтранслейт зацінив би.
Спочатку будь ласка слухайте уважно, а потім пишіть, а то недочуєте і вкидаєте не зрозуміло що.
jaral написано:
solomon+vedmak+kein написано:
Обнімочки
+1

Ай та плюсану, щоб було))))

Реліз оновлено - додано 2 серію

380982245817 
Частий відвідувач


З нами з: 22.07.15
Востаннє: 17.11.18
Повідомлень: 48

2017-12-10 15:40  
Arch Enemy
привіт, коли будуть нові серії і чи взагалі будуть ?

EvGaS 
Відео Гуртом - субтитрування
Відео Гуртом - субтитрування


З нами з: 27.02.12
Востаннє: 16.11.18
Повідомлень: 5071

2017-12-10 15:44  
Усе, тепер через обійнятка треба переозвучувати. Happy
Arch Enemy 
Відео Гуртом - озвучення
Відео Гуртом - озвучення


З нами з: 30.08.12
Востаннє: 16.11.18
Повідомлень: 1576

2017-12-10 21:59  
380982245817 написано:
привіт, коли будуть нові серії і чи взагалі будуть ?

Будуть, буде ще одна серія (загалом їх 3), поки вона на стадії перекладу.
Далі здається є ще 2 сезон.

EvGaS написано:
Усе, тепер через обійнятка треба переозвучувати. Happy

То вже маразм, коли калька ввижається, ще б про білоруську мову згадали)))))

ostap5 
Новенький


З нами з: 09.06.11
Востаннє: 16.11.18
Повідомлень: 6

2017-12-11 18:54  
шо пацани, аніме?
Arch Enemy 
Відео Гуртом - озвучення
Відео Гуртом - озвучення


З нами з: 30.08.12
Востаннє: 16.11.18
Повідомлень: 1576

2017-12-13 13:28  
ostap5 написано:
шо пацани, аніме?

А шо, нє?)))

Arch Enemy 
Відео Гуртом - озвучення
Відео Гуртом - озвучення


З нами з: 30.08.12
Востаннє: 16.11.18
Повідомлень: 1576

2017-12-16 12:49  
Реліз оновлено - додано 3 (останню) серію

Ваш часовий пояс: GMT + 2 Години

Нова тема   Відповісти