Зоряний пил / Stardust (2007) Remux 1080p 2xUkr/Eng | Sub Ukr/Eng

Нові коментарі

Нова тема   Відповісти
Автор Повідомлення
Argentum 
Поважний учасник


З нами з: 25.09.11
Востаннє: 21.03.19
Повідомлень: 178

2017-11-28 18:16  
Зоряний пил / Stardust (2007) Remux 1080p 2xUkr/Eng | Sub Ukr/Eng

Зоряний пил / Stardust (2007) Remux 1080p 2xUkr/Eng | Sub Ukr/Eng


Жанр: пригодницький, фентезі, мелодрама, сімейний
Країна: США, Велика Британія, Ісландія



Кінокомпанія: Paramount Pictures
Режисер: Метью Вон
Актори: Чарлі Кокс, Клер Дейнс, Мішель Пфайффер, Сієна Міллер, Роберт де Ніро, Марк Стронг, Руперт Еверетт, Пітер О'Тул, Джейсон Флемінг, Натаніель Паркер, Марк Хіп, Адам Бакстон, Ієн Маккеллен та інші.

Сюжет:
Маленьке англійське селище відокремлене стародавньою стіною від надприродного паралельного всесвіту, де панують магія і чаклунство. Молодий Тристан Торн необачно обіцяє найкрасивішій дівчині селища, що принесе їй зірку, що злетіла з неба і впала по той бік стіни. На своїй дорозі слідами прадавніх легенд Тристан зустріне всесильного короля і його змовника-сина, могутню відьму, капітана піратського корабля і хитромудрого торговця, а також знайде свою дійсну любов, ключ до розуміння своєї суті і долі, про яку він міг лише мріяти.


Тривалість: 02:07:43
Якість: Remux
Відео:
кодек:
розмір кадру: 1920 х 1080
бітрейт: 30 Мб/с

Аудіо # 1:
мова: українська
переклад: професійний дубльований
кодек: 5.1
бітрейт: 448 кб/с

Аудіо # 2:
мова: українська
переклад: багатоголосий закадровий
кодек: 2.0
бітрейт: 192 кб/с

Аудіо # 3:
мова: англійська
переклад: оригінал
кодек: 5.1
бітрейт: 1536 кб/с

Субтитри:
мова: українська
тип: програмні (м'які)
формат: *.srt

Субтитри:
мова: англійська
тип: програмні (м'які)
формат: *.srt
Info
General
Unique ID : 72695082833711645131119812421808809078 (0x36B0904D96CEAF7BF53D821369E3E476)
Complete name : /home/jacks/Videos/Temp/Stardust (2007) [Ukr, Eng] Remux 1080p [Hurtom].
Format :
Format version : Version 4 / Version 2
File size : 28.7 GiB
Duration : 2h 7mn
Overall bit rate mode : Variable
Overall bit rate : 32.2 Mbps
Movie name : Release for HURTOM.COM
Encoded date : UTC 2017-11-28 13:27:15
Writing application : v18.0.0 ('Apricity') 64-bit
Writing library : libebml v1.3.5 + v1.4.8
Attachments : 170101193915166743_f0_0.jpg

Video
ID : 1
Format : AVC
Format/Info : Advanced Video Codec
Format profile : [email protected]
Format settings, CABAC : Yes
Format settings, ReFrames : 4 frames
Format settings, GOP : M=3, N=12
Codec ID : V_MPEG4/ISO/AVC
Duration : 2h 7mn
Bit rate mode : Variable
Bit rate : 30.0 Mbps
Maximum bit rate : 37.0 Mbps
Width : 1 920 pixels
Height : 1 080 pixels
Display aspect ratio : 16:9
Frame rate mode : Constant
Frame rate : 23.976 (24000/1001) fps
Color space : YUV
Chroma subsampling : 4:2:0
Bit depth : 8 bits
Scan type : Progressive
Bits/(Pixel*Frame) : 0.604
Stream size : 26.8 GiB (93%)
Title : AVC @ 30.0 Mbps
Language : English
Default : Yes
Forced : Yes
Color range : Limited
Color primaries : BT.709
Transfer characteristics : BT.709
Matrix coefficients : BT.709

Audio #1
ID : 2
Format : AC-3
Format/Info : Audio Coding 3
Mode extension : CM (complete main)
Format settings, Endianness : Big
Codec ID : A_AC3
Duration : 2h 7mn
Bit rate mode : Constant
Bit rate : 448 Kbps
Channel(s) : 6 channels
Channel positions : Front: L C R, Side: L R, LFE
Sampling rate : 48.0 KHz
Frame rate : 31.250 fps (1536 spf)
Compression mode : Lossy
Stream size : 409 MiB (1%)
Title : 5.1 @ 448 Kbps
Language : Ukrainian
Default : Yes
Forced : Yes

Audio #2
ID : 3
Format : AC-3
Format/Info : Audio Coding 3
Mode extension : CM (complete main)
Format settings, Endianness : Big
Codec ID : A_AC3
Duration : 2h 7mn
Bit rate mode : Constant
Bit rate : 192 Kbps
Channel(s) : 2 channels
Channel positions : Front: L R
Sampling rate : 48.0 KHz
Frame rate : 31.250 fps (1536 spf)
Compression mode : Lossy
Stream size : 175 MiB (1%)
Title : 2.0 @ 192 Kbps
Language : Ukrainian
Default : No
Forced : No

Audio #3
ID : 4
Format :
Format/Info : Digital Theater Systems
Mode : 16
Format settings, Endianness : Big
Codec ID : A_DTS
Duration : 2h 7mn
Bit rate mode : Constant
Bit rate : 1 509 Kbps
Channel(s) : 6 channels
Channel positions : Front: L C R, Side: L R, LFE
Sampling rate : 48.0 KHz
Frame rate : 93.750 fps (512 spf)
Bit depth : 24 bits
Compression mode : Lossy
Stream size : 1.35 GiB (5%)
Title : 5.1 @ 1536 Kbps
Language : English
Default : No
Forced : No

Text #1
ID : 5
Format : UTF-8
Codec ID : S_TEXT/UTF8
Codec ID/Info : UTF-8 Plain Text
Duration : 2h 7mn
Bit rate : 67 bps
Count of elements : 1235
Stream size : 63.2 KiB (0%)
Language : Ukrainian
Default : No
Forced : No

Text #2
ID : 6
Format : UTF-8
Codec ID : S_TEXT/UTF8
Codec ID/Info : UTF-8 Plain Text
Duration : 2h 0mn
Bit rate : 51 bps
Count of elements : 1224
Stream size : 45.1 KiB (0%)
Language : English
Default : No
Forced : No
Скріншоти





Джерело: &
Особиста оцінка: 10 - без зайвих вагань рекомендую всім!


Золотий реліз (завантажене не впливає на рейтинг)
 Трекер:    Зареєстрований   

Завантажити / скачати фільм українською



відео для новачків



 Зареєстрований:   2017-11-28 18:16
 Розмір:   28.71 GB 
 Оцінка фільму:   9.4/10 (Голосів: 19)
   
Інші релізи
   Зоряний Пил / Stardust (2007) 1080p Ukr/Eng | Sub Ukr/Eng kvvdvd  5 / 0   16.57 GB   2017-01-01 20:11 
   Зоряний пил / Stardust (2007) 2xUkr/Eng patriot2305  6 / 2   2.75 GB   2014-01-18 00:24 
   Зоряний пил / Stardust (2007) patriot2305  13 / 0   1.63 GB   2013-12-06 20:51 
   Зоряний пил / Stardust (2007) 720p Ukr/Eng | Sub Ukr/Multi NeetScrool  3 / 0   5.96 GB   2013-11-30 08:24 
   Зоряний пил / Stardust (2007) AVC Drool  2 / 0   1.87 GB   2013-05-11 16:32 
   Зоряний Пил / Stardust (2007) 1080p Ukr | Sub Ukr/Eng Tenax555  6 / 0   8.57 GB   2009-08-29 10:41 
grizz 
Частий відвідувач


З нами з: 14.09.12
Востаннє: 31.01.19
Повідомлень: 26

2017-11-28 19:31  
Рекомендую до перегляду тим хто полюбляє якісне фентезі
Sacramental 
Частий відвідувач


З нами з: 24.11.16
Востаннє: 21.03.19
Повідомлень: 43

2017-11-29 14:59  
Норм фільм!!! Гадки не маю, чому я про нього не знав)))
mrsdoubtfire 
Поважний учасник


З нами з: 22.10.15
Востаннє: 06.02.18
Повідомлень: 162

2017-11-29 17:13  
Листковий пиріг, Зоряний пил, Пипець, Люди Ікс: Перший клас. Якщо не рахувати останнього Кінгсмана, Меттью Вон - майже Ґай Річі.
ВАВУНЯ 
Поважний учасник


З нами з: 30.06.15
Востаннє: 16.03.19
Повідомлень: 238

2017-12-03 12:03  
пречудова стрічка! особисто мені дуже подобається. у майбутньому, сподіваюсь, сподобається доньці.
небагато стрічок, яких я оцінюю в 10/10, але тут однозначні 10/10

Silverheart 
Новенький


З нами з: 08.09.14
Востаннє: 22.02.19
Повідомлень: 12

2018-04-12 15:19  
Так, погоджуюсь - фільм вельми чудова казка! Тільки підліткам не показуйте - зірка Івейн у виконанні Клер Дейнс занадто для цього зваблива ;-) А так - чаклунки, пірати, принци та король. Все є і все закінчується як треба! Цю казоньку треба подивитись!
Ваш часовий пояс: GMT + 2 Години

Нова тема   Відповісти