Світ Вінкс / World of Winx (Сезон 1) (2016) 1080p Ukr/Eng | sub Multi

Нові коментарі

Нова тема   Відповісти
Автор Повідомлення
sergiyko.5 
Забанено
Забанено


З нами з: 25.02.16
Востаннє: 29.10.20
Повідомлень: 3648

2017-11-28 12:48  
Світ Вінкс / World of Winx (Сезон 1) (2016) 1080p Ukr/Eng | sub Multi

Світ Вінкс / World of Winx (Сезон 1) (2016) 1080p Ukr/Eng | sub Multi

Жанр: анімація, пригоди, фентезі
Країна: Італія, США
Кінокомпанія: Rainbow, Netflix
Режисер: Іджиніо Страффі

Сюжет:
В новому мультсеріалі, Вінкс розпочали таємну подорож по всьому світу, щоб знайти талановитих дітей у сфері мистецтва, спорту, музики та науки. Ці діти наділені своєю власною "особливою" магією, яка приваблює фей Вінкс Клубу. Звичайно, не обійдеться і без ворогів, з якими треба зійтися і перемогти. Так що Блум, Стелла, Лейла, Муза, Техна та Флора мають нелегку задачу у вирішенні цієї проблеми.




Тривалість: 1 серія: 24:20 (цілком серій: 13)
Якість:

Відео: кодек: розмір кадру: 1920 х 1080 бітрейт: 5800 кб/с
Аудіо 1: мова: українська переклад: багатоголосий закадровий кодек: 2.0 бітрейт: 192 кб/с
Джерело озвучення:
Аудіо 2: мова: англійська переклад: оригінал кодек: 5.1 бітрейт: 384 кб/с
Субтитри: мова: англійська, іспанська, французська, китайська тип: програмні (м'які) формат: *.srt
Перелік серій
01 The Talent Thief
02 New Powers
03 The Legend of the Crocodile Man
04 The Monster Under the City
05 Stylist Wanted
06 The Fashion Week
07 The Chef Contest
08 The Shaman
09 Shattered Dreams
10 Dangerous Waters
11 Shadows on the Snow
12 The Watchmaker
13 The Fall of the Queen
Про файл:

General
Unique ID : 220560282735525521227797511078511138845 (0xA5EE5D84B678F9A188425AF50164581D)
Complete name : E:\MULTFILMS\World of Winx 1080p \World of Winx S01 1080p \World.of.Winx.S01E01.The.Talent.Thief.1080p..Ukr.Eng.
Format :
Format version : Version 4 / Version 2
File size : 1.06 GiB
Duration : 24 min 22 s
Overall bit rate mode : Variable
Overall bit rate : 6 245 kb/s
Movie name : World of Winx S01 1080p by sergiyko
Encoded date : UTC 2017-11-28 09:28:25
Writing application : v18.0.0 ('Apricity') 64-bit
Writing library : libebml v1.3.5 + v1.4.8

Video
ID : 1
Format : AVC
Format/Info : Advanced Video Codec
Format profile : [email protected]
Format settings, CABAC : Yes
Format settings, RefFrames : 3 frames
Codec ID : V_MPEG4/ISO/AVC
Duration : 24 min 22 s
Bit rate mode : Variable
Bit rate : 5 800 kb/s
Maximum bit rate : 8 700 kb/s
Width : 1 920 pixels
Height : 1 080 pixels
Display aspect ratio : 16:9
Frame rate mode : Constant
Frame rate : 25.000 FPS
Color space : YUV
Chroma subsampling : 4:2:0
Bit depth : 8 bits
Scan type : Progressive
Bits/(Pixel*Frame) : 0.112
Stream size : 988 MiB (91%)
Title : S01E01.The.Talent.Thief
Writing library : core 118
Encoding settings : cabac=1 / ref=3 / deblock=1:0:0 / analyse=0x1:0x111 / me=umh / subme=10 / psy=1 / psy_rd=1.00:0.00 / mixed_ref=1 / me_range=24 / chroma_me=1 / trellis=2 / 8x8dct=0 / cqm=0 / deadzone=21,11 / fast_pskip=1 / chroma_qp_offset=-2 / threads=6 / sliced_threads=0 / nr=0 / decimate=1 / interlaced=0 / bluray_compat=0 / constrained_intra=0 / bframes=2 / b_pyramid=0 / b_adapt=2 / b_bias=0 / direct=3 / weightb=1 / open_gop=0 / weightp=2 / keyint=50 / keyint_min=26 / scenecut=0 / intra_refresh=0 / rc_lookahead=0 / rc=2pass / mbtree=1 / bitrate=5800 / ratetol=1.0 / qcomp=0.50 / qpmin=6 / qpmax=51 / qpstep=4 / cplxblur=20.0 / qblur=0.5 / vbv_maxrate=8700 / vbv_bufsize=11600 / nal_hrd=vbr / ip_ratio=1.40 / aq=1:1.00
Language : English
Default : Yes
Forced : No

Audio #1
ID : 2
Format : AC-3
Format/Info : Audio Coding 3
Format settings, Endianness : Big
Codec ID : A_AC3
Duration : 24 min 22 s
Bit rate mode : Constant
Bit rate : 192 kb/s
Channel(s) : 2 channels
Channel positions : Front: L R
Sampling rate : 48.0 kHz
Frame rate : 31.250 FPS (1536 SPF)
Bit depth : 16 bits
Compression mode : Lossy
Stream size : 33.5 MiB (3%)
Title : MOV | ТЕТ
Language : Ukrainian
Service kind : Complete Main
Default : Yes
Forced : Yes

Audio #2
ID : 3
Format : AC-3
Format/Info : Audio Coding 3
Format settings, Endianness : Big
Codec ID : A_AC3
Duration : 24 min 22 s
Bit rate mode : Constant
Bit rate : 384 kb/s
Channel(s) : 6 channels
Channel positions : Front: L C R, Side: L R, LFE
Sampling rate : 48.0 kHz
Frame rate : 31.250 FPS (1536 SPF)
Bit depth : 16 bits
Compression mode : Lossy
Stream size : 67.0 MiB (6%)
Title : Original
Language : English
Service kind : Complete Main
Default : No
Forced : No

Text #1
ID : 4
Format : UTF-8
Codec ID : S_TEXT/UTF8
Codec ID/Info : UTF-8 Plain Text
Duration : 23 min 27 s
Bit rate : 55 b/s
Count of elements : 491
Stream size : 9.55 KiB (0%)
Language : English
Default : No
Forced : No

Text #2
ID : 5
Format : UTF-8
Codec ID : S_TEXT/UTF8
Codec ID/Info : UTF-8 Plain Text
Duration : 23 min 33 s
Bit rate : 51 b/s
Count of elements : 234
Stream size : 8.87 KiB (0%)
Language : Spanish
Default : No
Forced : No

Text #3
ID : 6
Format : UTF-8
Codec ID : S_TEXT/UTF8
Codec ID/Info : UTF-8 Plain Text
Duration : 23 min 33 s
Bit rate : 56 b/s
Count of elements : 230
Stream size : 9.69 KiB (0%)
Language : French
Default : No
Forced : No

Text #4
ID : 7
Format : UTF-8
Codec ID : S_TEXT/UTF8
Codec ID/Info : UTF-8 Plain Text
Duration : 23 min 37 s
Bit rate : 42 b/s
Count of elements : 238
Stream size : 7.41 KiB (0%)
Title : Simplified
Language : Chinese
Default : No
Forced : No

Text #5
ID : 8
Format : UTF-8
Codec ID : S_TEXT/UTF8
Codec ID/Info : UTF-8 Plain Text
Duration : 23 min 37 s
Bit rate : 46 b/s
Count of elements : 241
Stream size : 8.06 KiB (0%)
Title : Traditional
Language : Chinese
Default : No
Forced : No
Скріншоти:




Запис/зведення: sergiyko


Бронзовий реліз (на рейтинг впливає 75% завантаженого)
 Трекер:    Зареєстрований   

Завантажити / скачати мультфільм українською



відео для новачків



 Зареєстрований:   2017-11-28 12:48
 Розмір:   15.36 GB 
 Оцінка мультсеріалу:   10/10 (Голосів: 3)
   
CoreKira 
Новенький


З нами з: 28.12.18
Востаннє: 16.04.21
Повідомлень: 4

2021-03-22 16:02  
2-й сезон плануєте викладати?
Ваш часовий пояс: GMT + 2 Години

Нова тема   Відповісти