Лицарі Некзо Найтс / Lego Nexo Knights (Сезон 1) (2015) 1080p

Нові коментарі

Нова тема   Відповісти
Автор Повідомлення
sergiyko.5 
Забанено
Забанено


З нами з: 25.02.16
Востаннє: 29.10.20
Повідомлень: 3648

2017-11-28 10:17  
Лицарі Некзо Найтс / Lego Nexo Knights (Сезон 1) (2015) 1080p

Лицарі Некзо Найтс / Lego Nexo Knights (Сезон 1) (2015) 1080p

Жанр: дитячий, фантастика, казка, пригодницький
Країна: Данія
Кінокомпанія: The Lego Group, M2 Entertainment Wilbros
Режисер: Дейв Осборн
Актори: Майкл Адамтвайт, Кетлін Бар, Гарі Чалк, Майкл Дейнжерфілд, Браян Драммонд

Сюжет:
У королівстві Найтоні панував лад і спокій, піддані короля любили і прославляли. Але несподівано над королівством нависли хмари – королівський блазень Джестро знайшов Книгу Монстрів і перейшов на темну сторону зла. Книга таїла в собі страшну силу, в ній від першої до останньої сторінки ховалося суцільне зло. Блазень Джестро, під впливом Книги Монстрів, створив військо лютих чудовиськ, і за його підтримки хотів заволодіти Найтоном і привласнити собі багатства королівства. Тепер вся надія на випускників Лицарської Академії Некзо, бо тільки вони здатні протистояти Джестро та його армії монстрів.
Разом із голографічним чарівником Мерлоком вони мандруватимуть мобільною фортецею Фортрекс і за допомогою своїх щитів завантажуватимуть дивовижні некзо-сили, здатні подолати злого Джестро та книгу монстрів. Та чи достатньо буде цих сил, аби врятувати Найтон і здобути перемогу над вогняними демонами?




Тривалість : 1 серія: 22:00 (цілком серій: 10)
Якість :

Відео : кодек: розмір кадру: 1920 х 1080 бітрейт: 2400 кб/с
Аудіо : мова: українська переклад: професійний дубльований кодек: 2.0 бітрейт: 192 кб/с
Джерело озвучення:
Перелік серій:
01 Книга Монстрів ч.1
02 Книга Монстрів ч.2
03 Сила Мерлока
04 Лицарський кодекс
05 Лицарів страх
06 Золота фортеця
07 Лабіринт облуди
08 Чорний лицар
09 Книга суцільного лиха
10 Могутність і магія
Про файл:
General
Unique ID : 237286184398246525757442753037208128850 (0xB283A82388903D5F962BDBF590D80D52)
Complete name : E:\MULTFILMS\Lego Nexo Knights\Lego Nexo Knights 1080p\S01E01.The Book Of Monsters.Part 1.
Format :
Format version : Version 4 / Version 2
File size : 407 MiB
Duration : 22 min 0 s
Overall bit rate : 2 589 kb/s
Movie name : S01E01 The Book Of Monsters rip by sergiyko
Encoded date : UTC 2016-04-11 06:47:38
Writing application : v9.0.1 ('Obstacles') 64bit
Writing library : libebml v1.3.3 + v1.4.4

Video
ID : 1
Format : AVC
Format/Info : Advanced Video Codec
Format profile : [email protected]
Format settings, CABAC : Yes
Format settings, RefFrames : 3 frames
Codec ID : V_MPEG4/ISO/AVC
Duration : 22 min 0 s
Bit rate : 2 395 kb/s
Width : 1 920 pixels
Height : 1 080 pixels
Display aspect ratio : 16:9
Frame rate mode : Constant
Frame rate : 24.000 FPS
Color space : YUV
Chroma subsampling : 4:2:0
Bit depth : 8 bits
Scan type : Progressive
Bits/(Pixel*Frame) : 0.048
Stream size : 377 MiB (93%)
Title : S01E01 The Book Of Monsters rip by sergiyko
Language : English
Default : Yes
Forced : No
Color range : Limited
Color primaries : BT.709
Transfer characteristics : BT.709
Matrix coefficients : BT.709

Audio
ID : 2
Format :
Format/Info : Advanced Audio Codec
Format profile : LC
Codec ID : A_AAC
Duration : 22 min 0 s
Bit rate : 192 kb/s
Channel(s) : 2 channels
Channel positions : Front: L R
Sampling rate : 48.0 kHz
Frame rate : 46.875 FPS (1024 SPF)
Compression mode : Lossy
Delay relative to video : 9 ms
Stream size : 30.2 MiB (7%)
Language : Ukrainian
Default : Yes
Forced : No

Скріншоти:





Автор записів та синхрону: sergiyko


Бронзовий реліз (на рейтинг впливає 75% завантаженого)
 Трекер:    Зареєстрований   

Завантажити / скачати мультфільм українською



відео для новачків



 Зареєстрований:   2017-11-28 10:17
 Розмір:   4.02 GB 
 Оцінка мультсеріалу:   9.6/10 (Голосів: 11)
   
Oleksa9 
VIP


З нами з: 17.05.12
Востаннє: 16.04.21
Повідомлень: 451

2017-11-28 21:01  
То лицарі чи найтс? Масло масляне.....
Patriot_ukr 
VIP


З нами з: 06.04.15
Востаннє: 11.04.21
Повідомлень: 2247

2017-11-28 21:30  
Oleksa9, в Україні конструктори продаються з оригінальною англ. назвою, а мульт скоріш за все озвучувався на замовлення Леґо Україна, тому Некзо Найтс (був у двох магазинах леґо і в обох крутили їхні мультики з укр. звуком). Лицарі додали, бо в мульті лицарі. Все задля продажу наборів.
Ваш часовий пояс: GMT + 2 Години

Нова тема   Відповісти