Земля в облозі / Taking Earth (2017) 1080p Ukr/Eng | Sub Eng

Нові коментарі

Нова тема   Відповісти
Автор Повідомлення
Anonymous 







2017-11-26 22:49  
Земля в облозі / Taking Earth (2017) 1080p Ukr/Eng | Sub Eng

Земля в облозі / Taking Earth (2017) 1080p Ukr/Eng | Sub Eng
Альтернативний постер



Жанр: фантастика, екшн
Країна: Південна Африка



Кінокомпанія: Digital Forces
Режисер: Грант Гамфріс / Grant Humphreys
Актори: Ронан Квармбі / Ronan Quarmby, Бред Річардс / Brad Richards , Барбара Гаррісон / Barbara Harrison, Марко Торледж / Marco Torlage, Річард Соренсен / Richard Sorensen та інші

Сюжет:
Людству загрожують чужопланетні загарбники. Серед семи мільярдів людей прибульці намагаються знайти хлопця, що має силу, здатну знищити їх.
Офіційний трейлер:


Вікова категорія: 12+

Тривалість: 01:39:34
Якість: 1080p
Відео:
кодек:
розмір кадру: 1904х804
бітрейт: 4530 кб/с

Аудіо # 1:
мова: українська
переклад: професійний дубльований
кодек: 2.0
бітрейт: 192 кб/с

Аудіо # 2:
мова: англійська
переклад: оригінал
кодек: 5.1
бітрейт: 384 кб/с

Субтитри # 1-2:
мова: англійська (повні, SDH)
тип: програмні (м'які)
формат: *.srt

Збережено оригінальні розділи
Info
Код:
Complete name               : Taking Earth (2017) [Ukr,Eng sub.Eng] 1080p [Hurtom].
Format                      :
Format version              : Version 4 / Version 2
File size                   : 3.55 GiB
Duration                    : 1 h 39 min
Overall bit rate            : 5 108 kb/s
Movie name                  : Земля в облозі / Taking Earth (2017) [Ukr,Eng sub.Eng] 1080p [Hurtom]
Released date               : 2017
Writing library             : libebml v1.3.5 + v1.4.8
Cover                       : Yes
Comment                     : http://www.imdb.com/title/tt4290974/
Attachments                 : cover.jpg
ARTIST                      : Ронан Квармбі / Ronan Quarmby, Бред Річардс / Brad Richards , Барбара Гаррісон / Barbara Harrison, Марко Торледж / Marco Torlage, Річард Соренсен / Richard Sorensen та інші
DIRECTOR                    : Грант Гамфріс / Grant Humphreys
GENRE                       : фантастика, екшн
SYNOPSIS                    : Людству загрожують чужопланетні загарбники. Серед семи мільярдів людей прибульці намагаються знайти хлопця, що має силу, здатну знищити їх...
Url                         : https://toloka.to/t85442

Video
ID                          : 1
Format                      : AVC
Format/Info                 : Advanced Video Codec
Format profile              : [email protected]
Format settings             : CABAC / 5 Ref Frames
Format settings, CABAC      : Yes
Format settings, ReFrames   : 5 frames
Codec ID                    : V_MPEG4/ISO/AVC
Duration                    : 1 h 39 min
Bit rate                    : 4 530 kb/s
Width                       : 1 904 pixels
Height                      : 804 pixels
Display aspect ratio        : 2.35:1
Frame rate mode             : Constant
Frame rate                  : 24.000 FPS
Color space                 : YUV
Chroma subsampling          : 4:2:0
Bit depth                   : 8 bits
Scan type                   : Progressive
Bits/(Pixel*Frame)          : 0.123
Stream size                 : 3.15 GiB (89%)
Title                       : Земля в облозі / Taking Earth (2017) 1080p [FGT]
Language                    : English
Default                     : Yes
Forced                      : No
Color range                 : Limited
Color primaries             : BT.709
Transfer characteristics    : BT.709
Matrix coefficients         : BT.709

Audio #1
ID                          : 2
Format                      : AC-3
Format/Info                 : Audio Coding 3
Codec ID                    : A_AC3
Duration                    : 1 h 39 min
Bit rate mode               : Constant
Bit rate                    : 192 kb/s
Channel(s)                  : 2 channels
Channel positions           : Front: L R
Sampling rate               : 48.0 kHz
Frame rate                  : 31.250 FPS (1536 SPF)
Bit depth                   : 16 bits
Compression mode            : Lossy
Stream size                 : 137 MiB (4%)
Title                       : Dub [TET] 2.0 192 Kbps [Hurtom - -_-B_E_N_D_E_R-_-]
Language                    : Ukrainian
Service kind                : Complete Main
Default                     : Yes
Forced                      : Yes

Audio #2
ID                          : 3
Format                      : AC-3
Format/Info                 : Audio Coding 3
Codec ID                    : A_AC3
Duration                    : 1 h 39 min
Bit rate mode               : Constant
Bit rate                    : 384 kb/s
Channel(s)                  : 6 channels
Channel positions           : Front: L C R, Side: L R, LFE
Sampling rate               : 48.0 kHz
Frame rate                  : 31.250 FPS (1536 SPF)
Bit depth                   : 16 bits
Compression mode            : Lossy
Stream size                 : 273 MiB (8%)
Title                       : Original, 5.1 384 Kbps
Language                    : English
Service kind                : Complete Main
Default                     : No
Forced                      : No

Text #1
ID                          : 4
Format                      : UTF-8
Codec ID                    : S_TEXT/UTF8
Codec ID/Info               : UTF-8 Plain Text
Duration                    : 1 h 34 min
Bit rate                    : 33 b/s
Count of elements           : 918
Stream size                 : 23.6 KiB (0%)
Title                       : Eng full
Language                    : English
Default                     : No
Forced                      : No

Text #2
ID                          : 5
Format                      : UTF-8
Codec ID                    : S_TEXT/UTF8
Codec ID/Info               : UTF-8 Plain Text
Duration                    : 1 h 34 min
Bit rate                    : 36 b/s
Count of elements           : 1039
Stream size                 : 25.1 KiB (0%)
Title                       : Eng SDH
Language                    : English
Default                     : No
Forced                      : No

Menu
00:00:00.000                : en:Chapter 1
00:09:24.564                : en:Chapter 2
00:21:07.266                : en:Chapter 3
00:30:48.847                : en:Chapter 4
00:41:34.492                : en:Chapter 5
00:49:20.957                : en:Chapter 6
01:01:11.667                : en:Chapter 7
01:11:10.264                : en:Chapter 8
01:20:41.834                : en:Chapter 9
01:29:48.380                : en:Chapter 10
01:35:13.704                : en:Chapter 11
Ще скріншоти
Джерело: &
Подяка за українську доріжку п. -_-B_E_N_D_E_R-_-


 Трекер:    Зареєстрований   

Завантажити / скачати фільм українською



відео для новачків



 Зареєстрований:   2017-11-27 00:59
 Розмір:   3.55 GB 
 Оцінка фільму:   5.2/10 (Голосів: 37)
   
Інші релізи
   Земля в облозі / Taking Earth (2017) AVC -_-B_E_N_D_E_R-_-  2 / 0   907 MB   2017-11-26 21:23 
kryk-v.ya. 
Попереджень: 1
Попереджень: 1 


З нами з: 14.02.14
Востаннє: 20.09.20
Повідомлень: 2238

2017-11-26 22:58  
знову фантастика...
aiden_finch 
Частий відвідувач


З нами з: 12.10.15
Востаннє: 19.09.20
Повідомлень: 36

2017-11-26 23:38  
ну рейтинг точно "фантастичний" =))
bot 
робот


З нами з: 30.09.07
Востаннє: 26.05.05
Повідомлень: 25546

2017-11-27 00:58  
Тему перенесено з Анонси релізів до форуму Фільми в HD


igor911

warcan 
Новенький


З нами з: 15.04.08
Востаннє: 19.09.20
Повідомлень: 1

2017-11-27 11:20  
Цими вихідними дане кіно йшло по ТЕТ, намагався дивитись, через силу...
Моя оцінка 2/10.

EvGaS 
Відео Гуртом - субтитрування
Відео Гуртом - субтитрування


З нами з: 27.02.12
Востаннє: 31.07.19
Повідомлень: 5668

2017-11-27 14:10  
Незбагненна дурня.
Мене стало на 5 хвилин 27 секунд.
Але за цей час встиг посміятися кілька разів.

GelioS_(UA) 
Свій


З нами з: 14.06.15
Востаннє: 19.09.20
Повідомлень: 64

2017-11-27 19:11  
warcan написано:
Цими вихідними дане кіно йшло по ТЕТ, намагався дивитись, через силу...

Угу... йшло... подивився лиш самий кінець - відчуття дивні. Але як на Південну Африку, то фільм дуже якісний. Це щодо картинки. А сюжет... знову дежавю.

lastbreath 
Свій


З нами з: 02.12.15
Востаннє: 20.09.20
Повідомлень: 55

2017-11-28 01:33  
Трек в трейлері убойний - Daniel Baron - Singularity
http://посилання такого роду заборонені, п.2.10

Gespenst 
VIP


З нами з: 30.09.09
Востаннє: 19.09.20
Повідомлень: 314

2017-11-28 11:32  
Коли я був малим класі у третьому, у нас був ляльковий театр ми дітям у дитсадку казки показували. Так от акторської майстерності гостроти і динаміку сюжету в нас було набагато більше. А це ж жах якійсь. Добре що не качав.
Sacramental 
Свій


З нами з: 24.11.16
Востаннє: 19.09.20
Повідомлень: 52

2017-11-28 13:27  
Не можу не погодитись з рейтингом IMBD)))
Gespenst 
VIP


З нами з: 30.09.09
Востаннє: 19.09.20
Повідомлень: 314

2017-11-28 20:36  
Sacramental написано:
Не можу не погодитись з рейтингом IMBD)))

а я не згодний. Їм стопудово доплатили. бо по чесному рейтинг має бути відʼємним

Revolt Energy 
Новенький


З нами з: 19.08.11
Востаннє: 18.09.20
Повідомлень: 21

2017-12-19 22:00  
Я не розумію, нащо ТЕТ перекладає такі фільми? Від цього ж канал точно не збільшить аудиторію! Від цього тільки може збільшитись кількість суїцидів у країні! Я не розумію, як актори, які мусили це озвучувати, дожили до кінця процесу і не вискочили з вікна? Як не пішла кров з очей у того, хто вирішив цей фільм пустити в перегляд? Проте, що режисери і сценаристи цього фільму будуть десь трошки нижче Гітлера в пеклі, то сумніву нема, бо це, свого роду, геноцид. Тупо ментальний теракт. А канал ТЕТ підтримує ці терористичні дії.
demitsuru 
Попереджень: 1
Попереджень: 1 


З нами з: 13.11.16
Востаннє: 17.09.20
Повідомлень: 528

2017-12-19 23:50  
GelioS_(UA)
на другому скріншоті рівень графіки як у школярів. ))

Vodo4kin 
Частий відвідувач


З нами з: 10.06.15
Востаннє: 13.09.20
Повідомлень: 30

2017-12-20 00:46  
Sacramental
підтримую

GelioS_(UA) 
Свій


З нами з: 14.06.15
Востаннє: 19.09.20
Повідомлень: 64

2018-01-18 21:02  
demitsuru написано:
на другому скріншоті рівень графіки як у школярів. ))

Ну, щодо цього скріна - то таки так))) Навіть я, повний чайник в графіці, в Блендері зміг би замутити щось схоже Wide grin

Kostya200982 
Новенький


З нами з: 10.12.16
Востаннє: 19.09.20
Повідомлень: 17

2018-07-28 22:38  
Фільм відстій на 2 бали.
Ваш часовий пояс: GMT + 2 Години

Нова тема   Відповісти