Я вбивця / Jestem morderca / I'm a Killer (2016) 720p Pol l Sub Ukr/Eng

Нові коментарі

Нова тема   Відповісти
Останній раз роздавалося Cheshire Puss (2020-12-03)
Автор Повідомлення
ivan vyrvyvuho 
VIP


З нами з: 19.08.12
Востаннє: 03.12.20
Повідомлень: 1177

2017-11-25 12:06  
Я вбивця / Jestem morderca / I'm a Killer (2016) 720p Pol l Sub Ukr/Eng

Я вбивця / Jestem morderca / I'm a Killer (2016) 720p Pol l Sub Ukr/Eng


Жанр: трилер, драма, біографічний
Країна: Польща



Кінокомпанія: RE Studio
Режисер: Мацей Пєпшица / Maciej Pieprzyca
Актори: Мірослав Ханішевський / Mirosław Haniszewski, Аркадіуш Якубік / Arkadiusz Jakubik, Аґата Кулеша / Agata Kulesza, Маґдалена Поплавська / Magdalena Popławska, Кароліна Станєц / Karolina Staniec, Пйотр Адамчик / Piotr Adamczyk та інші.

Сюжет:
У Польщі на Шльонську в сімдесяті роки двадцятого століття з'явився серійний убивця, який планував убити тридцять жінок до тридцятиріччя ПНР. Два роки міліція не могла вийти на слід злочинця, але після вбивства племінниці Першого секретаря ПКП слідство очолив молодий та перспективний оперативник Януш Ясінський, для якого це розслідування має стати, або найбільшою перемогою, або найбільшою поразкою. За якийсь час він виходить на слід ймовірного маніяка й заарештовує його, але чи насправді це той чоловік, якого розшукували, слідчий мусить з'ясувати й вирішує зійтися поближче з підозрюваним.


Тривалість: 01:50:02
Якість:
Відео:
кодек:
розмір кадру: 1280 х 536
бітрейт: 4170 кб/с

Аудіо:
мова: польська
переклад: оригінал
кодек: 5.1
бітрейт: 1509 кб/с

Субтитри:
мова: українська
тип: програмні (м'які)
формат: *.srt
переклад: з польської ivan vyrvyvuho

Субтитри:
мова: англійська
тип: програмні (м'які)
формат: *.srt
Скріншоти





Звіт про файл
General
Unique ID : 202101500320964590453688266990143654342 (0x980B5547D5E568BF84B01727DED7C9C6)
Complete name : D:\тор\Jestem morderca (2016) [Pol,SubUkr,Eng]BDRip720p.
Format :
Format version : Version 2
File size : 4.37 GiB
Duration : 1 h 50 min
Overall bit rate : 5 680 kb/s
Encoded date : UTC 2017-11-25 08:27:55
Writing application : v5.6.0 ('Kenya Kane') built on May 27 2012 16:44:04
Writing library : libebml v1.2.3 + v1.3.0

Video
ID : 1
Format : AVC
Format/Info : Advanced Video Codec
Format profile : [email protected]
Format settings, CABAC : Yes
Format settings, ReFrames : 5 frames
Codec ID : V_MPEG4/ISO/AVC
Duration : 1 h 50 min
Bit rate : 4 170 kb/s
Width : 1 280 pixels
Height : 536 pixels
Display aspect ratio : 2.40:1
Frame rate mode : Constant
Frame rate : 25.000 FPS
Color space : YUV
Chroma subsampling : 4:2:0
Bit depth : 8 bits
Scan type : Progressive
Bits/(Pixel*Frame) : 0.243
Stream size : 3.12 GiB (71%)
Writing library : core 152 r2851 ba24899
Encoding settings : cabac=1 / ref=5 / deblock=1:0:0 / analyse=0x3:0x133 / me=umh / subme=7 / psy=1 / psy_rd=1.00:0.00 / mixed_ref=1 / me_range=16 / chroma_me=1 / trellis=1 / 8x8dct=1 / cqm=0 / deadzone=21,11 / fast_pskip=0 / chroma_qp_offset=-2 / threads=17 / lookahead_threads=2 / sliced_threads=0 / nr=0 / decimate=1 / interlaced=0 / bluray_compat=0 / constrained_intra=0 / bframes=3 / b_pyramid=2 / b_adapt=1 / b_bias=0 / direct=1 / weightb=1 / open_gop=0 / weightp=2 / keyint=250 / keyint_min=25 / scenecut=40 / intra_refresh=0 / rc_lookahead=40 / rc=2pass / mbtree=1 / bitrate=4170 / ratetol=1.0 / qcomp=0.60 / qpmin=0 / qpmax=69 / qpstep=4 / cplxblur=20.0 / qblur=0.5 / ip_ratio=1.40 / aq=1:1.00
Language : Polish
Default : Yes
Forced : No
Statistics Tags Issue : v11.0.0 ('Alive') 64bit 2017-08-10 20:49:17 / v5.6.0 ('Kenya Kane') built on May 27 2012 16:44:04 2017-11-25 08:27:55
FromStats_BitRate : 4168497
FromStats_Duration : 01:50:02.360000000
FromStats_FrameCount : 165059
FromStats_StreamSize : 3440240104

Audio
ID : 2
Format :
Format/Info : Digital Theater Systems
Mode : 16
Format settings, Endianness : Big
Codec ID : A_DTS
Duration : 1 h 50 min
Bit rate mode : Constant
Bit rate : 1 509 kb/s
Channel(s) : 6 channels
Channel positions : Front: L C R, Side: L R, LFE
Sampling rate : 48.0 kHz
Frame rate : 93.750 FPS (512 spf)
Bit depth : 24 bits
Compression mode : Lossy
Stream size : 1.16 GiB (27%)
Language : Polish
Default : Yes
Forced : No
Statistics Tags Issue : v11.0.0 ('Alive') 64bit 2017-08-10 20:49:17 / v5.6.0 ('Kenya Kane') built on May 27 2012 16:44:04 2017-11-25 08:27:55
FromStats_BitRate : 1509000
FromStats_Duration : 01:50:01.600000000
FromStats_FrameCount : 618900
FromStats_StreamSize : 1245226800

Text #1
ID : 3
Format : UTF-8
Codec ID : S_TEXT/UTF8
Codec ID/Info : UTF-8 Plain Text
Title : Ukr
Language : Ukrainian
Default : No
Forced : No

Text #2
ID : 4
Format : UTF-8
Codec ID : S_TEXT/UTF8
Codec ID/Info : UTF-8 Plain Text
Language : English
Default : Yes
Forced : Yes
Statistics Tags Issue : v11.0.0 ('Alive') 64bit 2017-08-10 20:49:17 / v5.6.0 ('Kenya Kane') built on May 27 2012 16:44:04 2017-11-25 08:27:55
FromStats_BitRate : 45
FromStats_Duration : 01:46:31.960000000
FromStats_FrameCount : 1098
FromStats_StreamSize : 36345
Джерело:
Особиста оцінка: 8 - мені сподобалося


Авторський реліз (завантажувати можна без реєстрації)
 Трекер:    Зареєстрований   

Завантажити / скачати фільм українською



відео для новачків



 Зареєстрований:   2017-11-25 12:06
 Розмір:   4.37 GB 
 Оцінка фільму:   9.1/10 (Голосів: 11)
   
bohdk 
Відео Гуртом - субтитрування
Відео Гуртом - субтитрування


З нами з: 23.10.09
Востаннє: 03.12.20
Повідомлень: 741

2017-11-25 22:19  
Це, до речі, другий фільм Macieja Pieprzycy. Якщо так далі піде - Оскар у нього не за горами. Хоча Оскар зараз не відображає рівня. Maciej знімає лише masterpieces. Так що оглядайте. Сильний фільм. Талановитий режисер.
h8.Sharhan 
Новенький


З нами з: 16.03.10
Востаннє: 22.11.20
Повідомлень: 22

2017-11-26 23:43  
Якщо я не помилився, то фільм про Zdzisław Marchwicki
Ваш часовий пояс: GMT + 2 Години

Нова тема   Відповісти