Школа монстрів: Електрично / Monster High: Electrified (2017) Remux 1080p Ukr/Eng | Sub Eng

Нові коментарі

Нова тема   Відповісти
Автор Повідомлення
Anonymous 







2017-11-24 18:07  
Школа монстрів: Електрично / Monster High: Electrified (2017) Remux 1080p Ukr/Eng | Sub Eng

Школа монстрів: Електрично / Monster High: Electrified (2017) Remux 1080p Ukr/Eng | Sub Eng


Жанр: анімація, пригодницький, сімейний
Країна: США



Кінокомпанія: Flaunt Productions, Mattel Creations
Режисер: Августа Зуреліді / Avgousta Zourelidi, Джан Фалкенштейн / Jun Falkenstein, Рене Війлю / René Veilleux
Актори: Кеті Таунсенд / Katy Townsend, Дебі Дерріберрі / Debi Derryberry, Кассандра Лі Морріс / Cassandra Lee Morris, Майкл Соріч / Michael Sorich, Крістіна Міліція / Cristina Milizia, Джонкуіл Гуд / Jonquil Goode, Ларісса Галлахер / Larissa Gallagher, Еван Сміт / Evan Smith, Селеста Гендерсон / Celeste Henderson

Сюжет:
Клодін мріє про відкриття салону краси для монстрів та звичайних людей, у Френкі є ідеальне місце - покинута електростанція за межами міста. Але ця ідея не сподобалась Моніці і вона готує підступний план, щоб перетворити свято відкриття на щось більш...шокуюче!


Тривалість: 01:11:43
Якість: Remux [Blu-ray Nordic]
Відео:
кодек:
розмір кадру: 1920 х 1080
бітрейт: 29,7 Мб/с

Аудіо # 1:
мова: українська
переклад: професійний дубльований
кодек: 2.0
бітрейт: 192 кб/с

Аудіо # 2:
мова: англійська
переклад: оригінал
кодек: -HD MA 5.1
бітрейт: 2516 кб/с

Субтитри # 1:
мова: англійська (SDH)
тип: пререндерні
формат: PGS

Субтитри # 2:
мова: англійська (повні)
тип: програмні (м'які)
формат: srt

Збережено оригінальні розділи, як на Blu-ray
Info
Код:
Complete name               : Monster High. Electrified (2017) [Ukr,Eng sub.Eng] Remux 1080p [Hurtom].
Format                      :
Format version              : Version 4 / Version 2
File size                   : 16.3 GiB
Duration                    : 1 h 11 min
Overall bit rate mode       : Variable
Overall bit rate            : 32.5 Mb/s
Movie name                  : Школа монстрів: Електрично / Monster High: Electrified (2017) [Ukr,Eng sub.Eng] Remux 1080p [Hurtom]
Released date               : 2017
Writing library             : libebml v1.3.5 + v1.4.8
Cover                       : Yes
Comment                     : http://www.imdb.com/title/tt6536944/
Attachments                 : cover.jpg
ARTIST                      : Кеті Таунсенд / Katy Townsend, Дебі Дерріберрі / Debi Derryberry, Кассандра Лі Морріс / Cassandra Lee Morris, Майкл Соріч / Michael Sorich, Крістіна Міліція / Cristina Milizia, Джонкуіл Гуд / Jonquil Goode, Ларісса Галлахер / Larissa Gallagher, Еван Сміт / Evan Smith, Селеста Гендерсон / Celeste Henderson та інші
DIRECTOR                    : Августа Зуреліді / Avgousta Zourelidi, Джан Фалкенштейн / Jun Falkenstein, Рене Війлю / René Veilleux
GENRE                       : анімація, пригодницький, сімейний
SYNOPSIS                    : Клодін мріє про відкриття салону краси для монстрів та звичайних людей, у Френкі є ідеальне місце - покинута електростанція за межами міста. Але ця ідея не сподобалась Моніці і вона готує підступний план, щоб перетворити свято відкриття на щось більш...шокуюче!
Url                         : https://toloka.to/t85392

Video
ID                          : 1
Format                      : AVC
Format/Info                 : Advanced Video Codec
Format profile              : [email protected]
Format settings             : CABAC / 4 Ref Frames
Format settings, CABAC      : Yes
Format settings, ReFrames   : 4 frames
Format settings, GOP        : M=3, N=12
Codec ID                    : V_MPEG4/ISO/AVC
Duration                    : 1 h 11 min
Bit rate mode               : Variable
Bit rate                    : 29.7 Mb/s
Maximum bit rate            : 33.0 Mb/s
Width                       : 1 920 pixels
Height                      : 1 080 pixels
Display aspect ratio        : 16:9
Frame rate mode             : Constant
Frame rate                  : 23.976 (24000/1001) FPS
Color space                 : YUV
Chroma subsampling          : 4:2:0
Bit depth                   : 8 bits
Scan type                   : Progressive
Bits/(Pixel*Frame)          : 0.598
Stream size                 : 14.9 GiB (92%)
Title                       : Школа монстрів: Електрично / Monster High: Electrified (2017) Remux 1080p [Blu-ray NOR]
Language                    : English
Default                     : Yes
Forced                      : No

Audio #1
ID                          : 2
Format                      : AC-3
Format/Info                 : Audio Coding 3
Codec ID                    : A_AC3
Duration                    : 1 h 11 min
Bit rate mode               : Constant
Bit rate                    : 192 kb/s
Channel(s)                  : 2 channels
Channel positions           : Front: L R
Sampling rate               : 48.0 kHz
Frame rate                  : 31.250 FPS (1536 SPF)
Bit depth                   : 16 bits
Compression mode            : Lossy
Stream size                 : 98.5 MiB (1%)
Title                       : Dub [TET] 2.0 192 Kbps [Hurtom-Electroz, Neytreenor]
Language                    : Ukrainian
Service kind                : Complete Main
Default                     : Yes
Forced                      : Yes

Audio #2
ID                          : 3
Format                      :
Format/Info                 : Digital Theater Systems
Format profile              : MA / Core
Codec ID                    : A_DTS
Duration                    : 1 h 11 min
Bit rate mode               : Variable / Constant
Bit rate                    : 2 516 kb/s / 1 509 kb/s
Channel(s)                  : 6 channels
Channel positions           : Front: L C R, Side: L R, LFE
Sampling rate               : 48.0 kHz
Frame rate                  : 93.750 FPS (512 SPF)
Bit depth                   : 24 bits
Compression mode            : Lossless / Lossy
Stream size                 : 1.26 GiB (8%)
Title                       : Original, -HD MA 5.1 2516 Kbps
Language                    : English
Default                     : No
Forced                      : No

Text #1
ID                          : 4
Format                      : PGS
Muxing mode                 : zlib
Codec ID                    : S_HDMV/PGS
Codec ID/Info               : Picture based subtitle format used on BDs/HD-DVDs
Duration                    : 1 h 8 min
Bit rate                    : 58.9 kb/s
Count of elements           : 2315
Stream size                 : 28.7 MiB (0%)
Title                       : Eng SDH
Language                    : English
Default                     : No
Forced                      : No

Text #2
ID                          : 5
Format                      : UTF-8
Codec ID                    : S_TEXT/UTF8
Codec ID/Info               : UTF-8 Plain Text
Duration                    : 1 h 8 min
Bit rate                    : 55 b/s
Count of elements           : 883
Stream size                 : 27.7 KiB (0%)
Title                       : Eng full
Language                    : English
Default                     : No
Forced                      : No

Menu
00:00:00.000                : en:Chapter 1
00:05:20.945                : en:Chapter 2
00:12:07.685                : en:Chapter 3
00:17:20.956                : en:Chapter 4
00:24:19.666                : en:Chapter 5
00:31:30.430                : en:Chapter 6
00:38:25.052                : en:Chapter 7
00:43:51.420                : en:Chapter 8
00:47:59.167                : en:Chapter 9
00:53:44.012                : en:Chapter 10
00:59:35.780                : en:Chapter 11
01:06:52.174                : en:Chapter 12
01:08:32.274                : en:Chapter 13


Джерело: &
Запис з ТБ - Neytreenor, синхронізація - Electroz


Золотий реліз (завантажене не впливає на рейтинг)
 Трекер:    Зареєстрований   

Завантажити / скачати мультфільм українською



відео для новачків



 Зареєстрований:   2017-11-24 18:34
 Розмір:   16.26 GB 
 Оцінка мультфільму:   3.4/10 (Голосів: 15)
   
Ваш часовий пояс: GMT + 2 Години

Нова тема   Відповісти