Школа монстрів: Електрично / Monster High: Electrified (2017) 720p Ukr/Eng | Sub Eng

Нові коментарі

Нова тема   Відповісти
Автор Повідомлення
Anonymous 







2017-11-24 00:04  
Школа монстрів: Електрично / Monster High: Electrified (2017) 720p Ukr/Eng | Sub Eng

Школа монстрів: Електрично / Monster High: Electrified (2017) 720p Ukr/Eng | Sub Eng


Жанр: анімація, пригодницький, сімейний
Країна: США



Кінокомпанія: Flaunt Productions, Mattel Creations
Режисер: Августа Зуреліді / Avgousta Zourelidi, Джан Фалкенштейн / Jun Falkenstein, Рене Війлю / René Veilleux
Актори: Кеті Таунсенд / Katy Townsend, Дебі Дерріберрі / Debi Derryberry, Кассандра Лі Морріс / Cassandra Lee Morris, Майкл Соріч / Michael Sorich, Крістіна Міліція / Cristina Milizia, Джонкуіл Гуд / Jonquil Goode, Ларісса Галлахер / Larissa Gallagher, Еван Сміт / Evan Smith, Селеста Гендерсон / Celeste Henderson

Сюжет:
Клодін мріє про відкриття салону краси для монстрів та звичайних людей, у Френкі є ідеальне місце - покинута електростанція за межами міста. Але ця ідея не сподобалась Моніці і вона готує підступний план, щоб перетворити свято відкриття на щось більш...шокуюче!


Тривалість: 01:11:43
Якість: 720p [Hurtom, джерело - Blu-ray Nordic]
Відео:
кодек:
розмір кадру: 1280 х 720
бітрейт: 3312 кб/с crf=16.4

Аудіо # 1:
мова: українська
переклад: професійний дубльований
кодек: 2.0
бітрейт: 192 кб/с

Аудіо # 2:
мова: англійська
переклад: оригінал
кодек: 5.1
бітрейт: 640 кб/с

Субтитри # 1-2:
мова: англійська (повні, SDH)
тип: програмні (м'які)
формат: *.srt

Збережено оригінальні розділи, як на Blu-ray
Info та log
Код:
Complete name               : Monster High. Electrified (2017) [Ukr,Eng sub.Eng] 720p [Hurtom].
Format                      :
Format version              : Version 4 / Version 2
File size                   : 2.08 GiB
Duration                    : 1 h 11 min
Overall bit rate            : 4 147 kb/s
Movie name                  : Школа монстрів: Електрично / Monster High: Electrified (2017) [Ukr,Eng sub.Eng] 720p [Hurtom]
Released date               : 2017
Writing library             : libebml v1.3.5 + v1.4.8
Cover                       : Yes
Comment                     : http://www.imdb.com/title/tt6536944/
Attachments                 : cover.jpg
ARTIST                      : Кеті Таунсенд / Katy Townsend, Дебі Дерріберрі / Debi Derryberry, Кассандра Лі Морріс / Cassandra Lee Morris, Майкл Соріч / Michael Sorich, Крістіна Міліція / Cristina Milizia, Джонкуіл Гуд / Jonquil Goode, Ларісса Галлахер / Larissa Gallagher, Еван Сміт / Evan Smith, Селеста Гендерсон / Celeste Henderson та інші
DIRECTOR                    : Августа Зуреліді / Avgousta Zourelidi, Джан Фалкенштейн / Jun Falkenstein, Рене Війлю / René Veilleux
GENRE                       : анімація, пригодницький, сімейний
SYNOPSIS                    : Клодін мріє про відкриття салону краси для монстрів та звичайних людей, у Френкі є ідеальне місце - покинута електростанція за межами міста. Але ця ідея не сподобалась Моніці і вона готує підступний план, щоб перетворити свято відкриття на щось більш...шокуюче!
Url                         : https://toloka.to/t85377

Video
ID                          : 1
Format                      : AVC
Format/Info                 : Advanced Video Codec
Format profile              : [email protected]
Format settings             : CABAC / 9 Ref Frames
Format settings, CABAC      : Yes
Format settings, ReFrames   : 9 frames
Codec ID                    : V_MPEG4/ISO/AVC
Duration                    : 1 h 11 min
Bit rate                    : 3 312 kb/s
Width                       : 1 280 pixels
Height                      : 720 pixels
Display aspect ratio        : 16:9
Frame rate mode             : Constant
Frame rate                  : 23.976 (24000/1001) FPS
Color space                 : YUV
Chroma subsampling          : 4:2:0
Bit depth                   : 8 bits
Scan type                   : Progressive
Bits/(Pixel*Frame)          : 0.150
Stream size                 : 1.66 GiB (80%)
Title                       : Школа монстрів: Електрично / Monster High: Electrified (2017) 720p [Hurtom]
Writing library             : core 152 r2851 ba24899
Encoding settings           : cabac=1 / ref=9 / deblock=1:1:1 / analyse=0x3:0x133 / me=umh / subme=11 / psy=1 / psy_rd=0.40:0.00 / mixed_ref=1 / me_range=32 / chroma_me=1 / trellis=2 / 8x8dct=1 / cqm=0 / deadzone=21,11 / fast_pskip=1 / chroma_qp_offset=-2 / threads=12 / lookahead_threads=3 / sliced_threads=0 / nr=0 / decimate=1 / interlaced=0 / bluray_compat=0 / constrained_intra=0 / bframes=12 / b_pyramid=2 / b_adapt=2 / b_bias=0 / direct=3 / weightb=1 / open_gop=0 / weightp=2 / keyint=240 / keyint_min=23 / scenecut=40 / intra_refresh=0 / rc_lookahead=60 / rc=crf / mbtree=0 / crf=16.4 / qcomp=0.60 / qpmin=0 / qpmax=69 / qpstep=4 / vbv_maxrate=37800 / vbv_bufsize=47250 / crf_max=0.0 / nal_hrd=none / filler=0 / ip_ratio=1.40 / pb_ratio=1.30 / aq=1:0.60
Language                    : English
Default                     : Yes
Forced                      : No

Audio #1
ID                          : 2
Format                      : AC-3
Format/Info                 : Audio Coding 3
Codec ID                    : A_AC3
Duration                    : 1 h 11 min
Bit rate mode               : Constant
Bit rate                    : 192 kb/s
Channel(s)                  : 2 channels
Channel positions           : Front: L R
Sampling rate               : 48.0 kHz
Frame rate                  : 31.250 FPS (1536 SPF)
Bit depth                   : 16 bits
Compression mode            : Lossy
Stream size                 : 98.5 MiB (5%)
Title                       : Dub [TET] 2.0 192 Kbps [Hurtom-Electroz, Neytreenor]
Language                    : Ukrainian
Service kind                : Complete Main
Default                     : Yes
Forced                      : Yes

Audio #2
ID                          : 3
Format                      : AC-3
Format/Info                 : Audio Coding 3
Codec ID                    : A_AC3
Duration                    : 1 h 11 min
Bit rate mode               : Constant
Bit rate                    : 640 kb/s
Channel(s)                  : 6 channels
Channel positions           : Front: L C R, Side: L R, LFE
Sampling rate               : 48.0 kHz
Frame rate                  : 31.250 FPS (1536 SPF)
Bit depth                   : 16 bits
Compression mode            : Lossy
Stream size                 : 328 MiB (15%)
Title                       : Original, 5.1 640 Kbps
Language                    : English
Service kind                : Complete Main
Default                     : No
Forced                      : No

Text #1
ID                          : 4
Format                      : UTF-8
Codec ID                    : S_TEXT/UTF8
Codec ID/Info               : UTF-8 Plain Text
Duration                    : 1 h 8 min
Bit rate                    : 55 b/s
Count of elements           : 883
Stream size                 : 27.7 KiB (0%)
Title                       : Eng full
Language                    : English
Default                     : No
Forced                      : No

Text #2
ID                          : 5
Format                      : UTF-8
Codec ID                    : S_TEXT/UTF8
Codec ID/Info               : UTF-8 Plain Text
Duration                    : 1 h 7 min
Bit rate                    : 67 b/s
Count of elements           : 1213
Stream size                 : 33.5 KiB (0%)
Title                       : Eng SDH
Language                    : English
Default                     : No
Forced                      : No

Menu
00:00:00.000                : en:00:00:00.000
00:05:20.946                : en:00:05:20.946
00:12:07.685                : en:00:12:07.685
00:17:20.957                : en:00:17:20.957
00:24:19.667                : en:00:24:19.667
00:31:30.430                : en:00:31:30.430
00:38:25.053                : en:00:38:25.053
00:43:51.420                : en:00:43:51.420
00:47:59.168                : en:00:47:59.168
00:53:44.012                : en:00:53:44.012
00:59:35.781                : en:00:59:35.781
01:06:52.175                : en:01:06:52.175
01:08:32.275                : en:01:08:32.275


Код:
[info]: profile High, level 4.1
[info]: frame I:1081  Avg QP:15.31  size:125785
[info]: frame P:25440 Avg QP:17.26  size: 35331
[info]: frame B:76652 Avg QP:20.20  size:  9739
[info]: consecutive B-frames:  4.6%  3.5% 11.8% 24.4% 15.2% 29.0%  5.0%  2.5%  1.2%  0.7%  0.8%  0.5%  0.8%
[info]: mb I  I16..4:  7.0% 66.1% 26.9%
[info]: mb P  I16..4:  2.0% 13.0%  2.8%  P16..4: 28.8% 25.8%  8.9%  1.4%  0.2%    skip:17.1%
[info]: mb B  I16..4:  0.3%  1.6%  0.3%  B16..8: 25.1% 12.9%  2.3%  direct: 3.0%  skip:54.5%  L0:41.8% L1:44.3% BI:13.9%
[info]: 8x8 transform intra:72.0% inter:63.3%
[info]: direct mvs  spatial:100.0% temporal:0.0%
[info]: coded y,uvDC,uvAC intra: 75.2% 79.8% 64.7% inter: 13.1% 14.6% 7.1%
[info]: i16 v,h,dc,p: 14% 12% 10% 65%
[info]: i8 v,h,dc,ddl,ddr,vr,hd,vl,hu: 17% 11% 11%  8% 10% 12% 10% 11% 11%
[info]: i4 v,h,dc,ddl,ddr,vr,hd,vl,hu: 17% 11%  8%  8% 14% 14% 10%  9%  9%
[info]: i8c dc,h,v,p: 39% 25% 20% 17%
[info]: Weighted P-Frames: Y:4.1% UV:3.4%
[info]: ref P L0: 52.0%  9.0% 16.6%  5.8%  5.1%  3.7%  3.6%  1.9%  2.1%  0.3%  0.0%
[info]: ref B L0: 72.7% 11.3%  6.6%  3.2%  2.4%  2.0%  1.3%  0.5%
[info]: ref B L1: 93.0%  7.0%
[info]: kb/s:3311.65
encoded 103173 frames, 8.86 fps, 3311.65 kb/s


Джерело:
Запис з ТБ - Neytreenor, синхронізація - Electroz


 Трекер:    Зареєстрований   

Завантажити / скачати мультфільм українською



відео для новачків



 Зареєстрований:   2017-11-24 00:26
 Розмір:   2.08 GB 
 Оцінка мультфільму:   4.4/10 (Голосів: 18)
   
Ваш часовий пояс: GMT + 2 Години

Нова тема   Відповісти