Школа монстрів: Електрично / Monster High: Electrified (2017) Ukr/Eng

Нові коментарі

Нова тема   Відповісти
Автор Повідомлення
Anonymous 







2017-11-23 23:41  
Школа монстрів: Електрично / Monster High: Electrified (2017) Ukr/Eng

Школа монстрів: Електрично / Monster High: Electrified (2017) Ukr/Eng


Жанр: анімація, пригодницький, сімейний
Країна: США



Кінокомпанія: Flaunt Productions, Mattel Creations
Режисер: Августа Зуреліді / Avgousta Zourelidi, Джан Фалкенштейн / Jun Falkenstein, Рене Війлю / René Veilleux
Актори: Кеті Таунсенд / Katy Townsend, Дебі Дерріберрі / Debi Derryberry, Кассандра Лі Морріс / Cassandra Lee Morris, Майкл Соріч / Michael Sorich, Крістіна Міліція / Cristina Milizia, Джонкуіл Гуд / Jonquil Goode, Ларісса Галлахер / Larissa Gallagher, Еван Сміт / Evan Smith, Селеста Гендерсон / Celeste Henderson

Сюжет:
Клодін мріє про відкриття салону краси для монстрів та звичайних людей, у Френкі є ідеальне місце - покинута електростанція за межами міста. Але ця ідея не сподобалась Моніці і вона готує підступний план, щоб перетворити свято відкриття на щось більш...шокуюче!


Тривалість: 01:11:43
Якість: [Hurtom, джерело - Blu-ray Nordic]
Відео:
кодек:
розмір кадру: 720 х 400
бітрейт: 2081 кб/с

Аудіо # 1:
мова: українська
переклад: професійний дубльований
кодек: 2.0
бітрейт: 192 кб/с

Аудіо # 2:
мова: англійська
переклад: оригінал
кодек: 5.1
бітрейт: 448 кб/с
Info
Код:
General
Complete name               : Monster High. Electrified (2017) [Ukr,Eng] [Hurtom].avi
Format                      : AVI
Format/Info                 : Audio Video Interleave
File size                   : 1.37 GiB
Duration                    : 1 h 11 min
Overall bit rate            : 2 735 kb/s
Movie name                  : Школа монстрів: Електрично / Monster High: Electrified (2017) [Ukr,Eng] [Hurtom]
Genre                       : анімація, пригодницький, сімейний
Writing application         : VirtualDubModUkr 1.5.10.2 (build 2542/release)
Writing library             : VirtualDubMod build 2542/release
Comment                     : https://toloka.to/t85375

Video
ID                          : 0
Format                      : MPEG-4 Visual
Format profile              : Advanced [email protected]
Format settings             : BVOP1
Format settings, BVOP       : 1
Format settings, QPel       : No
Format settings, GMC        : No warppoints
Format settings, Matrix     : Default (MPEG)
Codec ID                    :
Codec ID/Hint               :
Duration                    : 1 h 11 min
Bit rate                    : 2 081 kb/s
Width                       : 720 pixels
Height                      : 400 pixels
Display aspect ratio        : 16:9
Frame rate                  : 23.976 (24000/1001) FPS
Color space                 : YUV
Chroma subsampling          : 4:2:0
Bit depth                   : 8 bits
Scan type                   : Progressive
Compression mode            : Lossy
Bits/(Pixel*Frame)          : 0.301
Stream size                 : 1.04 GiB (76%)
Writing library             : 67

Audio #1
ID                          : 1
Format                      : AC-3
Format/Info                 : Audio Coding 3
Codec ID                    : 2000
Duration                    : 1 h 11 min
Bit rate mode               : Constant
Bit rate                    : 192 kb/s
Channel(s)                  : 2 channels
Channel positions           : Front: L R
Sampling rate               : 48.0 kHz
Frame rate                  : 31.250 FPS (1536 SPF)
Bit depth                   : 16 bits
Compression mode            : Lossy
Stream size                 : 98.5 MiB (7%)
Alignment                   : Split accross interleaves
Interleave, duration        : 42  ms (1.00 video frame)
Interleave, preload duratio : 500  ms
Service kind                : Complete Main

Audio #2
ID                          : 2
Format                      : AC-3
Format/Info                 : Audio Coding 3
Codec ID                    : 2000
Duration                    : 1 h 11 min
Bit rate mode               : Constant
Bit rate                    : 448 kb/s
Channel(s)                  : 6 channels
Channel positions           : Front: L C R, Side: L R, LFE
Sampling rate               : 48.0 kHz
Frame rate                  : 31.250 FPS (1536 SPF)
Bit depth                   : 16 bits
Compression mode            : Lossy
Stream size                 : 230 MiB (16%)
Alignment                   : Split accross interleaves
Interleave, duration        : 42  ms (1.00 video frame)
Interleave, preload duratio : 500  ms
Service kind                : Complete Main


Джерело:
Запис з ТБ - Neytreenor, синхронізація - Electroz


 Трекер:    Зареєстрований   

Завантажити / скачати мультфільм українською



відео для новачків



 Зареєстрований:   2017-11-23 23:46
 Розмір:   1.37 GB 
 Оцінка мультфільму:   5.3/10 (Голосів: 29)
   
niko_tuner 
Новенький


З нами з: 11.09.16
Востаннє: 27.05.18
Повідомлень: 2

2017-12-30 19:46  
ДЯКУЮ!
Anonymous 







2017-12-30 19:49  
niko_tuner, для подяк є кнопка "Дякую" в блоці завантажeння.
Ваш часовий пояс: GMT + 2 Години

Нова тема   Відповісти