Життя Девіда Ґейла (Гейла) / The Life of David Gale (2003) 720p Ukr/Eng | Sub Eng

Нові коментарі

Нова тема   Відповісти
Автор Повідомлення
Anonymous 







2017-11-22 20:28  
Життя Девіда Ґейла / The Life of David Gale (2003) 720p Ukr/Eng | Sub Eng



Жанр: трилер, драма, кримінальний
Країна: США, Німеччина, Велика Британія



Кінокомпанія: Universal Pictures, Intermedia Films, Dirty Hands Productions
Режисер: Алан Паркер / Alan Parker
Актори: Кейт Вінслет / Kate Winslet, Кевін Спейсі / Kevin Spacey, Лаура Лінні / Laura Linney, Рона Мітра / Rhona Mitra, Кліо Кінґ / Cleo King, Констанс Джонс / Constance Jones та інші

Сюжет:
Його злочин очевидний...Його покарання визначене...Його життя в її руках... Професор Девід Ґейл, авторитетний борець за скасування страти, опиняється за ґратами і незабаром буде страчений за жорстоке зґвалтування та вбивство своєї колеги. Навіть під загрозою смерті він навідріз відмовляється пролити світло на обставини справи. Але за три дні до виконання вироку він все-таки погоджується дати інтерв'ю журналістці Елізабет Блум, знаменитій своїми сенсаційними статтями. Розмова з Ґейлом переконує Елізабет у його невинуватості, але чи встигне вона з'ясувати, хто підставив професора й врятувати безневинно засудженого від смерті, кинувши виклик часу, що летить невблаганно?


Рейтинг MPAA: R - особам до 17 років обов'язкова присутність батьків або дорослого опікуна
Вікова категорія: 16+

Тривалість: 02:10:18
Якість: 720p
Відео:
кодек:
розмір кадру: 1280 х 544
бітрейт: 6525 кб/с

Аудіо # 1:
мова: українська
переклад: багатоголосий закадровий
кодек: 2.0 [стерео]
бітрейт: 192 кб/с

Аудіо # 2:
мова: англійська
переклад: оригінал
кодек: 5.1
бітрейт: 640 кб/с

Субтитри:
мова: англійська
тип: програмні (м'які)
формат: *.srt

Збережено оригінальні розділи, як на Blu-ray
Info та log
Код:
Complete name               : The Life of David Gale (2003) [Ukr,Eng sub.Eng] 720p [Hurtom].
Format                      :
Format version              : Version 4 / Version 2
File size                   : 6.70 GiB
Duration                    : 2 h 10 min
Overall bit rate            : 7 356 kb/s
Movie name                  : Життя Девіда Ґейла (Гейла) / The Life of David Gale (2003) [Ukr,Eng sub.Eng] 720p [Hurtom]
Released date               : 2003
Writing library             : libebml v1.3.5 + v1.4.8
Cover                       : Yes
Comment                     : http://www.imdb.com/title/tt0289992/
Attachments                 : cover.jpg
ARTIST                      : Кейт Вінслет / Kate Winslet, Кевін Спейсі / Kevin Spacey, Лаура Лінні / Laura Linney, Рона Мітра / Rhona Mitra, Кліо Кінґ / Cleo King, Констанс Джонс / Constance Jones та інші
DIRECTOR                    : Алан Паркер / Alan Parker
GENRE                       : трилер, драма, кримінальний
SYNOPSIS                    : Його злочин очевидний...Його покарання визначене...Його життя в її руках... Професор Девід Ґейл, авторитетний борець за скасування страти, опиняється за ґратами і незабаром буде страчений за жорстоке зґвалтування та вбивство своєї колеги. Навіть під загрозою смерті він навідріз відмовляється пролити світло на обставини справи. Але за три дні до приведення вироку у виконання він все-таки погоджується дати інтерв'ю журналістці Елізабет Блум, знаменитій своїми сенсаційними статтями. Розмова з Ґейлом переконує Елізабет у його невинуватості, але чи встигне вона з'ясувати, хто підставив професора й врятувати безневинно засудженого від смерті, кинувши виклик часу, що летить невблаганно?
Url                         : https://toloka.to/t85361

Video
ID                          : 1
Format                      : AVC
Format/Info                 : Advanced Video Codec
Format profile              : [email protected]
Format settings             : CABAC / 9 Ref Frames
Format settings, CABAC      : Yes
Format settings, ReFrames   : 9 frames
Codec ID                    : V_MPEG4/ISO/AVC
Duration                    : 2 h 10 min
Bit rate                    : 6 525 kb/s
Width                       : 1 280 pixels
Height                      : 544 pixels
Display aspect ratio        : 2.35:1
Frame rate mode             : Constant
Frame rate                  : 23.976 (24000/1001) FPS
Color space                 : YUV
Chroma subsampling          : 4:2:0
Bit depth                   : 8 bits
Scan type                   : Progressive
Bits/(Pixel*Frame)          : 0.391
Stream size                 : 5.94 GiB (89%)
Title                       : Життя Девіда Ґейла (Гейла) / The Life of David Gale (2003) 720p
Writing library             : core 138 r2358 9e941d1
Encoding settings           : cabac=1 / ref=9 / deblock=1:-3:-3 / analyse=0x3:0x133 / me=umh / subme=10 / psy=1 / psy_rd=1.10:0.10 / mixed_ref=1 / me_range=32 / chroma_me=1 / trellis=2 / 8x8dct=1 / cqm=0 / deadzone=21,11 / fast_pskip=0 / chroma_qp_offset=-3 / threads=8 / lookahead_threads=2 / sliced_threads=0 / nr=0 / decimate=0 / interlaced=0 / bluray_compat=0 / constrained_intra=0 / bframes=12 / b_pyramid=2 / b_adapt=2 / b_bias=0 / direct=3 / weightb=1 / open_gop=0 / weightp=2 / keyint=240 / keyint_min=23 / scenecut=60 / intra_refresh=0 / rc_lookahead=60 / rc=2pass / mbtree=0 / bitrate=6525 / ratetol=1.0 / qcomp=0.60 / qpmin=0 / qpmax=69 / qpstep=4 / cplxblur=20.0 / qblur=0.5 / vbv_maxrate=50000 / vbv_bufsize=62500 / nal_hrd=none / ip_ratio=1.40 / pb_ratio=1.30 / aq=1:1.00
Language                    : English
Default                     : Yes
Forced                      : No
Color range                 : Limited
Color primaries             : BT.709
Transfer characteristics    : BT.709
Matrix coefficients         : BT.709

Audio #1
ID                          : 2
Format                      : AC-3
Format/Info                 : Audio Coding 3
Codec ID                    : A_AC3
Duration                    : 2 h 10 min
Bit rate mode               : Constant
Bit rate                    : 192 kb/s
Channel(s)                  : 2 channels
Channel positions           : Front: L R
Sampling rate               : 48.0 kHz
Frame rate                  : 31.250 FPS (1536 SPF)
Bit depth                   : 16 bits
Compression mode            : Lossy
Stream size                 : 179 MiB (3%)
Title                       : MVO [TTP, Volya Cine+ Hit HD] 2.0 [stereo] 192 Kbps [Hurtom-Electroz, Sando7]
Language                    : Ukrainian
Service kind                : Complete Main
Default                     : Yes
Forced                      : Yes

Audio #2
ID                          : 3
Format                      : AC-3
Format/Info                 : Audio Coding 3
Codec ID                    : A_AC3
Duration                    : 2 h 10 min
Bit rate mode               : Constant
Bit rate                    : 640 kb/s
Channel(s)                  : 6 channels
Channel positions           : Front: L C R, Side: L R, LFE
Sampling rate               : 48.0 kHz
Frame rate                  : 31.250 FPS (1536 SPF)
Bit depth                   : 16 bits
Compression mode            : Lossy
Stream size                 : 596 MiB (9%)
Title                       : Original, 5.1 640 Kbps
Language                    : English
Service kind                : Complete Main
Default                     : No
Forced                      : No

Text
ID                          : 4
Format                      : UTF-8
Codec ID                    : S_TEXT/UTF8
Codec ID/Info               : UTF-8 Plain Text
Duration                    : 2 h 2 min
Bit rate                    : 61 b/s
Count of elements           : 1661
Stream size                 : 54.9 KiB (0%)
Title                       : Eng SDH
Language                    : English
Default                     : No
Forced                      : No

Menu
00:00:00.000                : en:News Magazine
00:05:57.440                : en:Churches and Prisons
00:13:05.493                : en:Ellis
00:18:15.094                : en:Gale's Lecture
00:25:02.709                : en:The Party
00:33:04.399                : en:Batter's Box
00:41:24.356                : en:Goth Girl Tour
00:45:11.125                : en:You Know I'm Innocent
00:51:41.306                : en:Downward Spiral
00:59:04.290                : en:Off the Wagon
01:01:49.330                : en:A Small Difficult Thing
01:06:42.707                : en:Motel Video
01:13:19.770                : en:Cowboy Cat & Mouse
01:18:30.288                : en:Make It Stop
01:26:40.945                : en:Death Is a Gift
01:31:37.742                : en:Reenactment
01:42:09.123                : en:Dusty's Cabin
01:46:54.574                : en:Give Me the Time
01:58:18.007                : en:Media Frenzy/Barcelona
02:02:51.322                : en:Key to Your Freedom/End Credits

Код:
frame I:1450 Avg QP:16.73 size:142472
frame P:37033 Avg QP:18.99 size: 62243
frame B:148967 Avg QP:21.27 size: 25923


Джерело: &
Подяка Sando7 за запис з ТБ, та Electroz'у за синхронізацію.


Срібний реліз (на рейтинг впливає 50% завантаженого)
 Трекер:    Зареєстрований   

Завантажити / скачати фільм українською



відео для новачків



 Зареєстрований:   2017-11-22 20:49
 Розмір:   6.7 GB 
 Оцінка фільму:   7.1/10 (Голосів: 42)
   
вальдемар 
Поважний учасник


З нами з: 06.01.11
Востаннє: 04.09.20
Повідомлень: 187

2018-01-29 20:38  
Якийсь бот занижує рейтинг чудового фільму.
tgb 
Свій


З нами з: 31.08.12
Востаннє: 29.09.20
Повідомлень: 67

2020-05-24 18:35  
фільм дивитись можна , хоча сюжет неймовірно фантастичний)
Ваш часовий пояс: GMT + 2 Години

Нова тема   Відповісти