Геошторм / Geostorm (2017) AVC Ukr/Eng | Sub Kor

Нові коментарі

Нова тема   Відповісти
Автор Повідомлення
Anonymous 







2017-11-22 11:03  
Геошторм / Geostorm (2017) AVC Ukr/Eng | Sub Kor

Геошторм / Geostorm (2017) AVC Ukr/Eng | Sub Kor


Жанр: фантастика, бойовик, трилер
Країна: США



Кінокомпанія: Warner Bros., Electric Entertainment, RatPac-Dune Entertainment, Skydance Productions, Jerry Bruckheimer Films
Режисер: Дін Девлін / Dean Devlin
Актори: Джерард Батлер / Gerard Butler, Джим Стьорджес / Jim Sturgess, Еббі Корніш / Abbie Cornish, Ед Гаріс / Ed Harris, Енді Ґарсія / Andy Garcia, Роберт Шиен / Robert Sheehan, Зазі Бітц / Zazie Beetz, Таліта Бейтман / Talitha Bateman, Деніел Ву / Daniel Wu, Річард Шифф / Richard Schiff та інші

Сюжет:
На Землі сталася серія несподіваних страшних стихійних лих, що забрали тисячі, а то й мільйони жертв. Лідери всіх держав вирішили разом боротися проти цього і створили систему супутників, які можуть контролювати клімат на планеті. Це має вберегти людей від будь-яких природних катастроф. Але щось пішло не так...
Офіційні українські тизер та трейлер:



Рейтинг MPAA: PG-13 - дітям до 13 років перегляд не бажаний
Вікова категорія: 12+
Тривалість: 01:48:07
Якість:
pВідео:
кодек:
розмір кадру: 720 х 304
бітрейт: 1100 кб/с
примітка: Присутні вбудовані (жорсткі) корейські субтитри!

Аудіо # 1:
мова: українська
переклад: професійний дубльований | студія Postmodern
кодек: 2.0
бітрейт: 192 кб/с
Інформація про дубляж
Переклад: Олег Колесніков
Режисер дубляжу: Павло Скороходько
Звукорежисер: Юрій Антонов
Ролі дублювали: Михайло Жонін, Ірина Ткаленко, Наталя Романько-Кисельова, Вероніка Лук'яненко, Олександр Ігнатуша, Анна Соболєва, Олег Стальчук, Михайло Федорченко, Дмитро Бузинський та інші

Фільм дубльовано компанією Postmodern


Аудіо #2:
мова: англійська
переклад: оригінал
кодек: 2.0
бітрейт: 128 кб/с

Субтитри:
мова: корейська
тип: вбудовані (жорсткі)
Info
Код:
Complete name               : Geostorm (2017) [Ukr,Eng sub.Kor] AVC [Hurtom].
Format                      :
Format version              : Version 4 / Version 2
File size                   : 1.08 GiB
Duration                    : 1 h 48 min
Overall bit rate            : 1 426 kb/s
Movie name                  : Геошторм / Geostorm (2017) [Ukr,Eng sub.Kor] AVC [Hurtom]
Released date               : 2017
Writing library             : libebml v1.3.5 + libmatroska v1.4.8
Cover                       : Yes
Comment                     : http://www.imdb.com/title/tt1981128/
Attachments                 : cover.jpg
ARTIST                      : Джерард Батлер / Gerard Butler, Джим Стьорджес / Jim Sturgess, Еббі Корніш / Abbie Cornish, Ед Гаріс / Ed Harris, Енді Ґарсія / Andy Garcia, Роберт Шиен / Robert Sheehan, Зазі Бітц / Zazie Beetz, Таліта Бейтман / Talitha Bateman, Деніел Ву / Daniel Wu, Річард Шифф / Richard Schiff та інші
DIRECTOR                    : Дін Девлін / Dean Devlin
GENRE                       : фантастика, бойовик, трилер
SYNOPSIS                    : На Землі сталася серія несподіваних страшних стихійних лих, що забрали тисячі, а то й мільйони жертв. Лідери всіх держав вирішили разом боротися проти цього і створили систему супутників, які можуть контролювати клімат на планеті. Це має вберегти людей від будь-яких природних катастроф. Але щось пішло не так...
Url                         : https://toloka.to/t85351

Video
ID                          : 1
Format                      : AVC
Format/Info                 : Advanced Video Codec
Format profile              : [email protected]
Format settings             : CABAC / 5 Ref Frames
Format settings, CABAC      : Yes
Format settings, ReFrames   : 5 frames
Codec ID                    : V_MPEG4/ISO/AVC
Duration                    : 1 h 48 min
Bit rate                    : 1 100 kb/s
Width                       : 720 pixels
Height                      : 304 pixels
Display aspect ratio        : 2.40:1
Original display aspect rat : 2.40:1
Frame rate mode             : Constant
Frame rate                  : 30.000 FPS
Color space                 : YUV
Chroma subsampling          : 4:2:0
Bit depth                   : 8 bits
Scan type                   : Progressive
Bits/(Pixel*Frame)          : 0.168
Stream size                 : 853 MiB (77%)
Title                       : Геошторм / Geostorm (2017) AVC [STUTTERSHIT]
Writing library             : core 148 r2795M aaa9aa8
Encoding settings           : cabac=1 / ref=5 / deblock=1:-1:-1 / analyse=0x3:0x113 / me=umh / subme=9 / psy=1 / psy_rd=1.00:0.15 / mixed_ref=1 / me_range=16 / chroma_me=1 / trellis=2 / 8x8dct=1 / cqm=0 / deadzone=21,11 / fast_pskip=1 / chroma_qp_offset=-3 / threads=24 / lookahead_threads=2 / sliced_threads=0 / nr=0 / decimate=1 / interlaced=0 / bluray_compat=0 / constrained_intra=0 / bframes=3 / b_pyramid=2 / b_adapt=2 / b_bias=0 / direct=3 / weightb=1 / open_gop=0 / weightp=2 / keyint=250 / keyint_min=25 / scenecut=40 / intra_refresh=0 / rc_lookahead=50 / rc=abr / mbtree=1 / bitrate=1100 / ratetol=1.0 / qcomp=0.60 / qpmin=0 / qpmax=69 / qpstep=4 / ip_ratio=1.40 / aq=1:1.00
Language                    : English
Default                     : Yes
Forced                      : No

Audio #1
ID                          : 2
Format                      : AC-3
Format/Info                 : Audio Coding 3
Codec ID                    : A_AC3
Duration                    : 1 h 48 min
Bit rate mode               : Constant
Bit rate                    : 192 kb/s
Channel(s)                  : 2 channels
Channel positions           : Front: L R
Sampling rate               : 48.0 kHz
Frame rate                  : 31.250 FPS (1536 SPF)
Bit depth                   : 16 bits
Compression mode            : Lossy
Delay relative to video     : -43 ms
Stream size                 : 148 MiB (13%)
Title                       : Dub [Postmodern, Line] 2.0 192 Kbps [Hurtom - Covenant]
Language                    : Ukrainian
Service kind                : Complete Main
Default                     : Yes
Forced                      : Yes

Audio #2
ID                          : 3
Format                      :
Format/Info                 : Advanced Audio Codec
Format profile              : LC
Codec ID                    : A_AAC-2
Duration                    : 1 h 48 min
Bit rate                    : 128 kb/s
Channel(s)                  : 2 channels
Channel positions           : Front: L R
Sampling rate               : 48.0 kHz
Frame rate                  : 46.875 FPS (1024 SPF)
Compression mode            : Lossy
Delay relative to video     : -43 ms
Stream size                 : 99.0 MiB (9%)
Title                       : Original, 2.0 128 Kbps
Language                    : English
Default                     : No
Forced                      : No
Скріншоти
Джерело: &
Подяка Covenant'у за українську доріжку


 Трекер:    Зареєстрований   

Завантажити / скачати фільм українською



відео для новачків



 Зареєстрований:   2017-11-22 11:14
 Розмір:   1.08 GB 
 Оцінка фільму:   6.5/10 (Голосів: 53)
   
Інші релізи
   Геошторм / Geostorm (2017) 720p Ukr/Eng | Sub Kor igor911  95 / 0   2.96 GB   2017-11-22 10:55 
   Геошторм / Geostorm (2017) Covenant  118 / 4   1.36 GB   2017-11-22 09:06 
jigalov 
Новенький


З нами з: 08.08.12
Востаннє: 12.12.17
Повідомлень: 8

2017-11-22 20:37  
цікавий фільм
Gespenst 
VIP


З нами з: 30.09.09
Востаннє: 12.12.17
Повідомлень: 276

2017-11-23 18:30  
нормально, прикольний фільм
Leben 
VIP


З нами з: 20.07.09
Востаннє: 12.12.17
Повідомлень: 345

2017-11-24 03:00  
На один раз нормально.
bissrib 
Свій


З нами з: 04.06.12
Востаннє: 11.12.17
Повідомлень: 53

2017-11-24 13:36  
Хороший фільм. «Естети» ідуть лісом.
alex2 
Частий відвідувач


З нами з: 01.02.12
Востаннє: 12.12.17
Повідомлень: 37

2017-11-24 16:42  
оу, ну і треш. сюжет фігня, монтаж фігня. ефекти..ну тут навіть без аймаксу видно, що якість на рівні із сюжетом, хоча момент на червоній площі хороший))
пс. Батлер здувся зовсім( та й решта "акторів"..
ппс. піду "післязавтра" передивлюся.

forcer76 
Новенький


З нами з: 17.02.11
Востаннє: 11.12.17
Повідомлень: 10

2017-11-24 21:48  
alex2 написано:

оу, ну і треш. сюжет фігня, монтаж фігня. ефекти..ну тут навіть без аймаксу видно, що якість на рівні із сюжетом, хоча момент на червоній площі хороший))
пс. Батлер здувся зовсім( та й решта "акторів"..
ппс. піду "післязавтра" передивлюся.


Алексе Другий, я бачу, що тобі пора критиком в "святому гаю" працювати. Але тут не всі такі як ти, "відавшиє віди"...Цікавий і актуальний сюжет, масштабні сцени, космічні панорамні візуалізації, непередбачувані повороти сюжетних ліній. Варто подивитися, не гірше "післязавтра". Рекомендую.

Himik_btf 
Новенький


З нами з: 25.07.11
Востаннє: 12.12.17
Повідомлень: 3

2017-11-24 22:00  
Цікава інтерпретація "Післязавтра".
alex2 
Частий відвідувач


З нами з: 01.02.12
Востаннє: 12.12.17
Повідомлень: 37

2017-11-25 09:57  
forcer76
мвахахаха, в якому цікаво місці непередбачуваний сюжет?)) хвилини так з 8 все стало зрозуміло. ну чесно, краще інтерстеллар і післязавтра глянути по 18 разу.

добре, що в аймакс не пішов.

bandera21 
Свій


З нами з: 10.11.12
Востаннє: 13.12.17
Повідомлень: 82

2017-12-05 23:27  
Коли буде без корейських субтитрів?
Ваш часовий пояс: GMT + 2 Години

Нова тема   Відповісти