Темна вежа / The Dark Tower (2017) Remux 1080p Ukr/Eng | Sub Ukr/Eng

Нові коментарі

Нова тема   Відповісти
Автор Повідомлення
IronBee 
Поважний учасник


З нами з: 08.02.10
Востаннє: 15.09.19
Повідомлень: 225

2017-11-19 19:07  
Темна вежа / The Dark Tower (2017) Remux 1080p Ukr/Eng | Sub Ukr/Eng

Темна вежа / The Dark Tower (2017) Remux 1080p Ukr/Eng | Sub Ukr/Eng


Жанр: вестерн, фентезі, бойовик, жахи, фантастика, пригодницький
Країна: США



Кінокомпанія: Sony Pictures Entertainment (SPE), Media Rights Capital (MRC), Imagine Entertainment
Режисер: Ніколай Арсель
Актори: Ідріс Ельба, Меттью МакКонахі, Том Тейлор, Кетрін Віннік, Джекі Ерл Гейлі, Еббі Лі, Клаудія Кім, Денніс Хейсберт, Френ Кранц, Хосе Суніга та інші

Сюжет:
Головний герой фільму – Роланд Діскейна. Він останній представник стародавнього лицарського ордена стрільців. Головна його зброя це два револьвери. Бачачи хаос, що насувається на світ, він вирішує відправитися до Темної вежі, центру всіх світів. Волтер О’Дім, відомий як Людина в чорному також прагне заволодіти вежею і все, чого він прагне – занурити всесвіт у пітьму.


Тривалість: 01:34:44
Якість: Remux
Відео:
кодек:
розмір кадру: 1920 х 1080
бітрейт: 24,8 Mб/с

Аудіо # 1:
мова: українська (Blu-ray)
переклад: професійний дубльований
кодек: 5.1
бітрейт: 640 кб/с

Аудіо # 2:
мова: англійська
переклад: оригінал
кодек: 5.1
бітрейт: 1 509 кб/с

Субтитри # 1: (повні)
мова: українська
тип: пререндерні
формат: *.PGS

Субтитри# 2-4: (повні, SDH, SDH-кольорові)
мова: англійська
тип: пререндерні
формат: *.PGS
Info
General
Unique ID : 195383724394351356699425493564023529602 (0x92FD895B0F137DCB8CF2BB07D5626082)
Complete name : D:\Films\Темна вежа The Dark Tower (2017) Remux 1080p UkrEng Sub UkrEng[Hurtom].
Format :
Format version : Version 4 / Version 2
File size : 19.6 GiB
Duration : 1 h 34 min
Overall bit rate mode : Variable
Overall bit rate : 29.6 Mb/s
Encoded date : UTC 2017-11-19 15:21:09
Writing application : v18.0.0 ('Apricity') 64-bit
Writing library : libebml v1.3.5 + v1.4.8

Video
ID : 1
Format : AVC
Format/Info : Advanced Video Codec
Format profile : [email protected]
Format settings, CABAC : Yes
Format settings, ReFrames : 2 frames
Format settings, GOP : M=1, N=10
Codec ID : V_MPEG4/ISO/AVC
Duration : 1 h 34 min
Bit rate mode : Variable
Bit rate : 24.8 Mb/s
Width : 1 920 pixels
Height : 1 080 pixels
Display aspect ratio : 16:9
Frame rate mode : Constant
Frame rate : 23.976 (24000/1001) FPS
Color space : YUV
Chroma subsampling : 4:2:0
Bit depth : 8 bits
Scan type : Progressive
Bits/(Pixel*Frame) : 0.499
Stream size : 16.4 GiB (84%)
Default : Yes
Forced : No

Audio #1
ID : 2
Format : AC-3
Format/Info : Audio Coding 3
Mode extension : CM (complete main)
Format settings, Endianness : Big
Codec ID : A_AC3
Duration : 1 h 34 min
Bit rate mode : Constant
Bit rate : 640 kb/s
Channel(s) : 6 channels
Channel positions : Front: L C R, Side: L R, LFE
Sampling rate : 48.0 kHz
Frame rate : 31.250 FPS (1536 spf)
Bit depth : 16 bits
Compression mode : Lossy
Stream size : 434 MiB (2%)
Language : Ukrainian
Default : Yes
Forced : No

Audio #2
ID : 3
Format :
Format/Info : Digital Theater Systems
Format profile : MA / Core
Mode : 16
Format settings, Endianness : Big
Codec ID : A_DTS
Duration : 1 h 34 min
Bit rate mode : Variable / Constant
Bit rate : 4 028 kb/s / 1 509 kb/s
Channel(s) : 6 channels
Channel positions : Front: L C R, Side: L R, LFE
Sampling rate : 48.0 kHz
Frame rate : 93.750 FPS (512 spf)
Bit depth : 24 bits
Compression mode : Lossless / Lossy
Stream size : 2.67 GiB (14%)
Language : English
Default : No
Forced : No

Text #1
ID : 4
Format : PGS
Muxing mode : zlib
Codec ID : S_HDMV/PGS
Codec ID/Info : Picture based subtitle format used on BDs/HD-DVDs
Duration : 1 h 33 min
Bit rate : 21.7 kb/s
Count of elements : 1826
Stream size : 14.6 MiB (0%)
Language : Ukrainian
Default : Yes
Forced : No

Text #2
ID : 5
Format : PGS
Muxing mode : zlib
Codec ID : S_HDMV/PGS
Codec ID/Info : Picture based subtitle format used on BDs/HD-DVDs
Duration : 1 h 25 min
Bit rate : 24.4 kb/s
Count of elements : 1784
Stream size : 14.9 MiB (0%)
Language : English
Default : No
Forced : No

Text #3
ID : 6
Format : PGS
Muxing mode : zlib
Codec ID : S_HDMV/PGS
Codec ID/Info : Picture based subtitle format used on BDs/HD-DVDs
Duration : 1 h 33 min
Bit rate : 39.7 kb/s
Count of elements : 2116
Stream size : 26.5 MiB (0%)
Language : English
Default : No
Forced : No

Text #4
ID : 7
Format : PGS
Muxing mode : zlib
Codec ID : S_HDMV/PGS
Codec ID/Info : Picture based subtitle format used on BDs/HD-DVDs
Duration : 1 h 33 min
Bit rate : 39.3 kb/s
Count of elements : 2112
Stream size : 26.3 MiB (0%)
Language : English
Default : No
Forced : No
Скріншоти




Джерело: &
Особиста оцінка: 10


Золотий реліз (завантажене не впливає на рейтинг)
 Трекер:    Зареєстрований   

Завантажити / скачати фільм українською



відео для новачків



 Зареєстрований:   2017-11-19 19:07
 Розмір:   19.56 GB 
 Оцінка фільму:   8.6/10 (Голосів: 15)
   
Інші релізи
   Темна вежа / The Dark Tower (2017) DVD9 Eng/Fr/It/Rus/Ukr | Sub Multi Bochys  1 / 0   5.46 GB   2017-12-31 21:28 
   Темна вежа / The Dark Tower (2017) AVC Ukr/Eng | Sub Ukr/Eng 11FrYkT  16 / 0   1.78 GB   2017-11-18 17:51 
   Темна вежа / The Dark Tower (2017) 720p Ukr/Eng | Sub Ukr/Eng 11FrYkT  8 / 0   3.83 GB   2017-11-18 16:41 
   Темна вежа / The Dark Tower (2017) 1080p Ukr/Eng | Sub Ukr/Eng Electroz  11 / 0   7.46 GB   2017-11-18 13:53 
   Темна вежа / The Dark Tower (2017) Covenant  9 / 0   1.45 GB   2017-11-03 13:46 
Uberwinder 
VIP


З нами з: 18.11.16
Востаннє: 16.09.19
Повідомлень: 276

2018-01-19 07:22  
Дякую, досить непоганий фільм для одноразового перегляду!
Ваш часовий пояс: GMT + 2 Години

Нова тема   Відповісти