Школа монстрів: Електрично / Monster High: Electrified (2017) 1080p Ukr/Eng | Sub Eng

Нові коментарі

Нова тема   Відповісти
Автор Повідомлення
Anonymous 







2017-11-19 16:43  
Школа монстрів: Електрично / Monster High: Electrified (2017) 1080p Ukr/Eng | Sub Eng

Школа монстрів: Електрично / Monster High: Electrified (2017) 1080p Ukr/Eng | Sub Eng


Жанр: анімація, пригодницький, сімейний
Країна: США



Кінокомпанія: Flaunt Productions, Mattel Creations
Режисер: Августа Зуреліді / Avgousta Zourelidi, Джан Фалкенштейн / Jun Falkenstein, Рене Війлю / René Veilleux
Актори: Кеті Таунсенд / Katy Townsend, Дебі Дерріберрі / Debi Derryberry, Кассандра Лі Морріс / Cassandra Lee Morris, Майкл Соріч / Michael Sorich, Крістіна Міліція / Cristina Milizia, Джонкуіл Гуд / Jonquil Goode, Ларісса Галлахер / Larissa Gallagher, Еван Сміт / Evan Smith, Селеста Гендерсон / Celeste Henderson

Сюжет:
Клодін мріє про відкриття салону краси для монстрів та звичайних людей, у Френкі є ідеальне місце - покинута електростанція за межами міста. Але ця ідея не сподобалась Моніці і вона готує підступний план, щоб перетворити свято відкриття на щось більш...шокуюче!


Тривалість: 01:11:43
Якість: 1080p [Hurtom, джерело - Blu-ray Nordic]
Відео:
кодек:
розмір кадру: 1920 х 1080
бітрейт: 10,1 Мб/с [crf=17.5]

Аудіо # 1:
мова: українська
переклад: професійний дубльований
кодек: 2.0
бітрейт: 192 кб/с

Аудіо # 2:
мова: англійська
переклад: оригінал
кодек: 5.1
бітрейт: 1509 кб/с

Субтитри # 1-2:
мова: англійська (повні, SDH)
тип: програмні (м'які)
формат: *.srt

Збережено оригінальні розділи, як на Blu-ray
Info та log
Код:
Complete name               : Monster High. Electrified (2017) [Ukr,Eng sub.Eng] 1080p [Hurtom].
Format                      :
Format version              : Version 4 / Version 2
File size                   : 5.89 GiB
Duration                    : 1 h 11 min
Overall bit rate            : 11.8 Mb/s
Movie name                  : Школа монстрів: Електрично / Monster High: Electrified (2017) [Ukr,Eng sub.Eng] 1080p [Hurtom]
Released date               : 2017
Writing library             : libebml v1.3.5 + v1.4.8
Cover                       : Yes
Comment                     : http://www.imdb.com/title/tt6536944/
Attachments                 : cover.jpg
ARTIST                      : Кеті Таунсенд / Katy Townsend, Дебі Дерріберрі / Debi Derryberry, Кассандра Лі Морріс / Cassandra Lee Morris, Майкл Соріч / Michael Sorich, Крістіна Міліція / Cristina Milizia, Джонкуіл Гуд / Jonquil Goode, Ларісса Галлахер / Larissa Gallagher, Еван Сміт / Evan Smith, Селеста Гендерсон / Celeste Henderson та інші
DIRECTOR                    : Августа Зуреліді / Avgousta Zourelidi, Джан Фалкенштейн / Jun Falkenstein, Рене Війлю / René Veilleux
GENRE                       : анімація, пригодницький, сімейний
SYNOPSIS                    : Клодін мріє про відкриття салону краси для монстрів та звичайних людей, у Френкі є ідеальне місце - покинута електростанція за межами міста. Але ця ідея не сподобалась Моніці і вона готує підступний план, щоб перетворити свято відкриття на щось більш...шокуюче!
Url                         : https://toloka.to/t85315

Video
ID                          : 1
Format                      : AVC
Format/Info                 : Advanced Video Codec
Format profile              : [email protected]
Format settings             : CABAC / 4 Ref Frames
Format settings, CABAC      : Yes
Format settings, ReFrames   : 4 frames
Codec ID                    : V_MPEG4/ISO/AVC
Duration                    : 1 h 11 min
Bit rate                    : 10.1 Mb/s
Width                       : 1 920 pixels
Height                      : 1 080 pixels
Display aspect ratio        : 16:9
Frame rate mode             : Constant
Frame rate                  : 23.976 (24000/1001) FPS
Color space                 : YUV
Chroma subsampling          : 4:2:0
Bit depth                   : 8 bits
Scan type                   : Progressive
Bits/(Pixel*Frame)          : 0.202
Stream size                 : 5.04 GiB (86%)
Title                       : Школа монстрів: Електрично / Monster High: Electrified (2017) 1080p [Blu-ray NOR, Hurtom]
Writing library             : core 152 r2851 ba24899
Encoding settings           : cabac=1 / ref=4 / deblock=1:1:1 / analyse=0x3:0x133 / me=umh / subme=11 / psy=1 / psy_rd=0.40:0.00 / mixed_ref=1 / me_range=32 / chroma_me=1 / trellis=2 / 8x8dct=1 / cqm=0 / deadzone=21,11 / fast_pskip=1 / chroma_qp_offset=-2 / threads=12 / lookahead_threads=2 / sliced_threads=0 / nr=0 / decimate=1 / interlaced=0 / bluray_compat=0 / constrained_intra=0 / bframes=8 / b_pyramid=2 / b_adapt=2 / b_bias=0 / direct=3 / weightb=1 / open_gop=0 / weightp=2 / keyint=240 / keyint_min=23 / scenecut=40 / intra_refresh=0 / rc_lookahead=60 / rc=crf / mbtree=0 / crf=17.5 / qcomp=0.60 / qpmin=0 / qpmax=69 / qpstep=4 / vbv_maxrate=37800 / vbv_bufsize=47250 / crf_max=0.0 / nal_hrd=none / filler=0 / ip_ratio=1.40 / pb_ratio=1.30 / aq=1:0.60
Language                    : English
Default                     : Yes
Forced                      : No

Audio #1
ID                          : 2
Format                      : AC-3
Format/Info                 : Audio Coding 3
Codec ID                    : A_AC3
Duration                    : 1 h 11 min
Bit rate mode               : Constant
Bit rate                    : 192 kb/s
Channel(s)                  : 2 channels
Channel positions           : Front: L R
Sampling rate               : 48.0 kHz
Frame rate                  : 31.250 FPS (1536 SPF)
Bit depth                   : 16 bits
Compression mode            : Lossy
Stream size                 : 98.5 MiB (2%)
Title                       : Dub [TET] 2.0 192 Kbps [Hurtom-Electroz, Neytreenor]
Language                    : Ukrainian
Service kind                : Complete Main
Default                     : Yes
Forced                      : Yes

Audio #2
ID                          : 3
Format                      :
Format/Info                 : Digital Theater Systems
Codec ID                    : A_DTS
Duration                    : 1 h 11 min
Bit rate mode               : Constant
Bit rate                    : 1 509 kb/s
Channel(s)                  : 6 channels
Channel positions           : Front: L C R, Side: L R, LFE
Sampling rate               : 48.0 kHz
Frame rate                  : 93.750 FPS (512 SPF)
Bit depth                   : 24 bits
Compression mode            : Lossy
Stream size                 : 774 MiB (13%)
Title                       : Original, 5.1 1509 Kbps
Language                    : English
Default                     : No
Forced                      : No

Text #1
ID                          : 4
Format                      : UTF-8
Codec ID                    : S_TEXT/UTF8
Codec ID/Info               : UTF-8 Plain Text
Duration                    : 1 h 8 min
Bit rate                    : 55 b/s
Count of elements           : 883
Stream size                 : 27.7 KiB (0%)
Title                       : Eng full
Language                    : English
Default                     : No
Forced                      : No

Text #2
ID                          : 5
Format                      : UTF-8
Codec ID                    : S_TEXT/UTF8
Codec ID/Info               : UTF-8 Plain Text
Duration                    : 1 h 7 min
Bit rate                    : 67 b/s
Count of elements           : 1213
Stream size                 : 33.5 KiB (0%)
Title                       : Eng SDH
Language                    : English
Default                     : No
Forced                      : No

Menu
00:00:00.000                : en:00:00:00.000
00:05:20.946                : en:00:05:20.946
00:12:07.685                : en:00:12:07.685
00:17:20.957                : en:00:17:20.957
00:24:19.667                : en:00:24:19.667
00:31:30.430                : en:00:31:30.430
00:38:25.053                : en:00:38:25.053
00:43:51.420                : en:00:43:51.420
00:47:59.168                : en:00:47:59.168
00:53:44.012                : en:00:53:44.012
00:59:35.781                : en:00:59:35.781
01:06:52.175                : en:01:06:52.175
01:08:32.275                : en:01:08:32.275


Код:
raw [info]: 1920x1080p 1:1 @ 24000/1001 fps (cfr)
[info]: using SAR=1/1
[info]: using cpu capabilities: MMX2 SSE2Fast SSSE3 SSE4.2 AVX
[info]: profile High, level 4.1
[info]: frame I:1124  Avg QP:15.53  size:265004
[info]: frame P:29721 Avg QP:17.00  size: 94380
[info]: frame B:72328 Avg QP:19.53  size: 31888
[info]: consecutive B-frames:  4.9%  4.1% 37.7% 13.8% 14.6% 19.0%  3.8%  0.8%  1.1%
[info]: mb I  I16..4:  2.2% 92.4%  5.4%
[info]: mb P  I16..4:  2.4% 27.4%  1.4%  P16..4: 29.1% 21.2%  6.3%  0.4%  0.0%    skip:11.8%
[info]: mb B  I16..4:  0.7%  5.7%  0.2%  B16..8: 28.5% 12.1%  1.6%  direct: 3.8%  skip:47.4%  L0:40.1% L1:42.2% BI:17.8%
[info]: 8x8 transform intra:87.6% inter:76.1%
[info]: direct mvs  spatial:100.0% temporal:0.0%
[info]: coded y,uvDC,uvAC intra: 78.2% 78.1% 65.2% inter: 15.4% 19.6% 7.6%
[info]: i16 v,h,dc,p: 19% 13% 12% 56%
[info]: i8 v,h,dc,ddl,ddr,vr,hd,vl,hu: 15% 10% 33%  6%  6%  8%  7%  7%  8%
[info]: i4 v,h,dc,ddl,ddr,vr,hd,vl,hu: 23% 12% 20%  6% 11% 11%  7%  6%  5%
[info]: i8c dc,h,v,p: 49% 22% 16% 13%
[info]: Weighted P-Frames: Y:3.3% UV:2.8%
[info]: ref P L0: 60.4%  8.9% 22.8%  7.3%  0.6%  0.1%
[info]: ref B L0: 82.4% 14.7%  2.9%
[info]: ref B L1: 95.6%  4.4%
[info]: kb/s:10056.51
encoded 103173 frames, 4.91 fps, 10056.51 kb/s


Джерело:
Запис з ТБ - Neytreenor, синхронізація - Electroz


 Трекер:    Зареєстрований   

Завантажити / скачати мультфільм українською



відео для новачків



 Зареєстрований:   2017-11-24 23:31
 Розмір:   5.89 GB 
 Оцінка мультфільму:   3.8/10 (Голосів: 16)
   
Ваш часовий пояс: GMT + 2 Години

Нова тема   Відповісти