Барбі. Магія дельфінів / Barbie: Dolphin Magic (2017) 1080p Ukr/Eng | Sub Eng

Нові коментарі

Нова тема   Відповісти
Автор Повідомлення
Anonymous 







2017-11-19 13:13  
Барбі. Магія дельфінів / Barbie: Dolphin Magic (2017) 1080p Ukr/Eng | Sub Eng

Барбі. Магія дельфінів / Barbie: Dolphin Magic (2017) 1080p Ukr/Eng | Sub Eng
Альтернативний постер



Жанр: анімація, пригодницький, сімейний
Країна: США



Кінокомпанія: Mattel Creations, Rainmaker Animation & Visual Effects
Режисер: Конрад Гелтен / Conrad Helten
Актори: Еріка Ліндбек/ Erica Lindbeck, Шеннон Чан-Кент / Shannon Chan-Kent, Казумі Еванс / Kazumi Evans, Клер Маграрет Корлет / Claire Margaret Corlett, Алісія Свейлз / Alyssya Swales, Едріан Петрів / Adrian Petriw, Марик Гендріксе / Maryke Hendrikse, Пол Добсон / Paul Dobson, Ґаррі Чалк / Garry Chalk

Сюжет:
У нових пригодах Барбі і її сестри вивчають яскравий підводний світ і знайомляться з дивовижними дельфінами.

Барбі та дівчата відправляються відвідати Кена, який проходить літнє стажування на коралових рифах проводячи дослідження та спостереження за дельфінами. Під час заглиблення в океан і вивчення рифів сестри зустрічають рідкісних дельфінів-самоцвітів, які відвідують цю місцину лише раз на рік. Ця дивовижна зустріч спонукає у дівчат бажання докладніше дізнатись про збереження коралів та про всіх морських мешканців, які в них живуть. Схоже, Барбі та її сестер чекає чергова захоплива пригода!


Тривалість: 01:03:28
Якість: 1080p
Відео:
кодек:
розмір кадру: 1920 х 1080
бітрейт: 6190 кб/с

Аудіо # 1:
мова: українська
переклад: професійний дубльований | студія LeDoyen
кодек: 5.1
бітрейт: 384 кб/с
примітка1: майже всі пісні також дубльовано
примітка2: з цим дубляжем також показували по ТЕТ
Інформація про дубляж:
Режисер дубляжу: Олена Бліннікова,
Бабрі - Наталка Денисенко
Кен - Андрій Соболєв
Айла - Юлія Перенчук,
Стейсі - Ксенія Гринько
Скіппер - Дарина Муращенко,
Челсі - Вероніка Лук'яненко
Марло - Олена Бліннікова,
Хьюго - Дмитро Гаврилов,
Комп'ютер - Дмитро Терещук
Аудіо # 2:
мова: англійська
переклад: оригінал
кодек: 5.1
бітрейт: 384 кб/с

Субтитри:
мова: англійська (SDH)
тип: програмні (м'які)
формат: *.srt
Info
Код:

Complete name               : Barbie. Dolphin Magic (2017) [Ukr,Eng sub.Eng] 1080p [Hurtom].
Format                      :
Format version              : Version 4
File size                   : 2.99 GiB
Duration                    : 1 h 3 min
Overall bit rate mode       : Variable
Overall bit rate            : 6 749 kb/s
Movie name                  : Барбі. Магія дельфінів / Barbie: Dolphin Magic (2017) [Ukr,Eng sub.Eng] 1080p [Hurtom]
Released date               : 2017
Encoded date                : UTC 2019-02-01 20:23:09
Writing application         : v30.1.0 ('Forever And More') 64-bit
Writing library             : libebml v1.3.6 + v1.4.9
Cover                       : Yes
Comment                     : http://www.imdb.com/title/tt7130740/
Attachments                 : cover.jpg
ARTIST                      : Еріка Ліндбек/ Erica Lindbeck, Шеннон Чан-Кент / Shannon Chan-Kent, Казумі Еванс / Kazumi Evans, Клер Маграрет Корлет / Claire Margaret Corlett, Алісія Свейлз / Alyssya Swales, Едріан Петрів / Adrian Petriw, Марик Гендріксе / Maryke Hendrikse, Пол Добсон / Paul Dobson, Ґаррі Чалк / Garry Chalk
DIRECTOR                    : Конрад Гелтен / Conrad Helten
GENRE                       : анімація, пригодницький, сімейний
SYNOPSIS                    : У нових пригодах Барбі і її сестри вивчають яскравий підводний світ і знайомляться з дивовижними дельфінами.  /  / Барбі та дівчата відправляються відвідати Кена, який проходить літнє стажування на коралових рифах проводячи дослідження та спостереження за дельфінами. Під час заглиблення в океан і вивчення рифів сестри зустрічають рідкісних дельфінів-самоцвітів, які відвідують цю місцину лише раз на рік. Ця дивовижна зустріч спонукає у дівчат бажання докладніше дізнатись про збереження коралів та про всіх морських мешканців, які в них живуть. Схоже, Барбі та її сестер чекає чергова захоплива пригода!
Url                         : https://toloka.to/t85308

Video
ID                          : 1
Format                      : AVC
Format/Info                 : Advanced Video Codec
Format profile              : [email protected]
Format settings             : CABAC / 3 Ref Frames
Format settings, CABAC      : Yes
Format settings, ReFrames   : 3 frames
Codec ID                    : V_MPEG4/ISO/AVC
Duration                    : 1 h 3 min
Bit rate mode               : Variable
Bit rate                    : 6 190 kb/s
Maximum bit rate            : 9 285 kb/s
Width                       : 1 920 pixels
Height                      : 1 080 pixels
Display aspect ratio        : 16:9
Frame rate mode             : Constant
Frame rate                  : 23.976 (24000/1001) FPS
Color space                 : YUV
Chroma subsampling          : 4:2:0
Bit depth                   : 8 bits
Scan type                   : Progressive
Bits/(Pixel*Frame)          : 0.125
Stream size                 : 2.65 GiB (89%)
Title                       : Барбі. Магія дельфінів / Barbie: Dolphin Magic (2017) 1080p [Netflix]
Writing library             : core 118
Encoding settings           : cabac=1 / ref=3 / deblock=1:0:0 / analyse=0x1:0x111 / me=umh / subme=10 / psy=1 / psy_rd=1.00:0.00 / mixed_ref=1 / me_range=24 / chroma_me=1 / trellis=2 / 8x8dct=0 / cqm=0 / deadzone=21,11 / fast_pskip=1 / chroma_qp_offset=-2 / threads=8 / sliced_threads=0 / nr=0 / decimate=1 / interlaced=0 / bluray_compat=0 / constrained_intra=0 / bframes=2 / b_pyramid=0 / b_adapt=2 / b_bias=0 / direct=3 / weightb=1 / open_gop=0 / weightp=2 / keyint=48 / keyint_min=25 / scenecut=0 / intra_refresh=0 / rc_lookahead=0 / rc=2pass / mbtree=1 / bitrate=6190 / ratetol=1.0 / qcomp=0.50 / qpmin=6 / qpmax=51 / qpstep=4 / cplxblur=20.0 / qblur=0.5 / vbv_maxrate=9285 / vbv_bufsize=12380 / nal_hrd=vbr / ip_ratio=1.40 / aq=1:1.00
Language                    : English
Default                     : Yes
Forced                      : No

Audio #1
ID                          : 2
Format                      : AC-3
Format/Info                 : Audio Coding 3
Commercial name             : Dolby Digital
Codec ID                    : A_AC3
Duration                    : 1 h 3 min
Bit rate mode               : Constant
Bit rate                    : 384 kb/s
Channel(s)                  : 6 channels
Channel layout              : L R C LFE Ls Rs
Sampling rate               : 48.0 kHz
Frame rate                  : 31.250 FPS (1536 SPF)
Bit depth                   : 16 bits
Compression mode            : Lossy
Stream size                 : 174 MiB (6%)
Title                       : Dub [LeDoyen, Netflix], 5.1 384 Kbps
Language                    : Ukrainian
Service kind                : Complete Main
Default                     : Yes
Forced                      : No

Audio #2
ID                          : 3
Format                      : AC-3
Format/Info                 : Audio Coding 3
Commercial name             : Dolby Digital
Codec ID                    : A_AC3
Duration                    : 1 h 3 min
Bit rate mode               : Constant
Bit rate                    : 384 kb/s
Channel(s)                  : 6 channels
Channel layout              : L R C LFE Ls Rs
Sampling rate               : 48.0 kHz
Frame rate                  : 31.250 FPS (1536 SPF)
Bit depth                   : 16 bits
Compression mode            : Lossy
Stream size                 : 174 MiB (6%)
Title                       : Original, 5.1 384 Kbps
Language                    : English
Service kind                : Complete Main
Default                     : No
Forced                      : No

Text
ID                          : 4
Format                      : UTF-8
Codec ID                    : S_TEXT/UTF8
Codec ID/Info               : UTF-8 Plain Text
Duration                    : 1 h 2 min
Bit rate                    : 83 b/s
Count of elements           : 1696
Stream size                 : 38.4 KiB (0%)
Title                       : Eng SDH
Language                    : English
Default                     : No
Forced                      : No


Джерело: &



01.02.2019 реліз оновлено - замінено український дубляж з запису ТЕТ (стерео) на ліцензійний 5.1

Подяка п. bgnt за наданий звук.


 Трекер:    Зареєстрований   

Завантажити / скачати мультфільм українською



відео для новачків



 Зареєстрований:   2019-02-01 22:58
 Розмір:   2.99 GB 
 Оцінка мультфільму:   6.2/10 (Голосів: 30)
 ЗАЛИШАЙТЕСЬ ЯКОМОГА ДОВШЕ НА РОЗДАЧІ! ЗАВАНТАЖИВ САМ - ДАЙ ЗАВАНТАЖИТИ ІНШИМ!
   
Volodymyr82 
Попереджень: 2
Попереджень: 2 


З нами з: 30.09.15
Востаннє: 21.02.21
Повідомлень: 30

2017-11-29 18:59  
Станьте будь-ласка на роздачу
Anonymous 







2017-11-29 19:02  
Volodymyr82, на роздачі є сіди. І прохання, якщо просите стати на роздачу - то потрудіться роздавати раніше завантажені вами релізи також.
Volodymyr82 написано:
Рейтинг: 0.03

leicheman 
Відео Гуртом - фільмокрай
Відео Гуртом - фільмокрай


З нами з: 03.07.14
Востаннє: 01.03.21
Повідомлень: 5926

2019-02-01 23:09  
А як ви витягли аудіо звідти?
Anonymous 







2019-02-01 23:20  
Реліз оновлено - замінено український дубляж з запису ТЕТ (стерео) на ліцензійний 5.1 з Нетфлікса

Додано через 4 хвилини 21 секунду:

"золото" на тиждень для заохочення підтримки релізу.

Anonymous 







2019-02-03 10:57  
На відміну від запису з ТЕТ тепер пісня під час титрів теж українською, а також озвучено назву на початку.
Ваш часовий пояс: GMT + 2 Години

Нова тема   Відповісти