Барбі. Магія дельфінів / Barbie: Dolphin Magic (2017) 720p Ukr/Eng | sub Eng

Нові коментарі

Нова тема   Відповісти
Автор Повідомлення
sergiyko.5 
Забанено
Забанено


З нами з: 25.02.16
Востаннє: 29.10.20
Повідомлень: 3648

2017-11-19 09:51  
Барбі. Магія дельфінів / Barbie: Dolphin Magic (2017) 720p Ukr/Eng | sub Eng

Барбі. Магія дельфінів / Barbie: Dolphin Magic (2017) 720p Ukr/Eng | sub Eng

Жанр: анімація, пригодницький, сімейний
Країна: США
Режисер: Майкл Дуглас, Конрад Хілтен

Сюжет:
У нових пригодах Барбі і її сестри вивчають яскравий підводний світ і знайомляться з дивовижними дельфінами.

Барбі та дівчата відправляються відвідати Кена на своєму літньому стажуванні, де він працює на коралових рифах, проводячи дослідження та спостереження за дельфінами. Під час заглиблення в океан і вивчення рифів сестри зустрічають рідкісних райдужних дельфінів, які відвідують цю місцину тільки раз на рік. Ця дивовижна зустріч спонукає у дівчат бажання докладніше дізнатись про збереження коралів і всіх морських жителів, які в них живуть. Схоже, Барбі та її сестер чекають чергові захоплюючі пригоди!




Тривалість: 01:03:28
Якість:

Відео: розмір кадру: 1280х720 бітрейт: 3600 кб/с
Аудіо # 1: мова: українська переклад: професійний дубльований кодек: 2.0 бітрейт: 192 кб/с
Джерело озвучення:
Аудіо # 2: мова: англійська переклад: оригінал кодек: 5.1 бітрейт: 384 кб/с
Субтитри: мова: англійська тип: програмні (м'які) формат: *.srt
Info
General
Unique ID : 230692980236215904900420941146426564506 (0xAD8DDA1379F49449A72585EDC7A9DF9A)
Complete name : D:\Torrents\MULT\Barbie.Dolphin.Magic.2017.720p..Ukr.Eng.
Format :
Format version : Version 4 / Version 2
File size : 1.88 GiB
Duration : 1 h 3 min
Overall bit rate : 4 249 kb/s
Movie name : Barbie Dolphin Magic 2017 720p by sergiyko
Encoded date : UTC 2017-11-19 08:31:08
Writing application : v18.0.0 ('Apricity') 64-bit
Writing library : libebml v1.3.5 + v1.4.8
Cover : Yes
Attachments : cover.jpeg

Video
ID : 1
Format : AVC
Format/Info : Advanced Video Codec
Format profile : [email protected]
Format settings, CABAC : Yes
Format settings, RefFrames : 8 frames
Codec ID : V_MPEG4/ISO/AVC
Duration : 1 h 3 min
Bit rate : 3 675 kb/s
Width : 1 280 pixels
Height : 720 pixels
Display aspect ratio : 16:9
Frame rate mode : Constant
Frame rate : 23.976 FPS
Color space : YUV
Chroma subsampling : 4:2:0
Bit depth : 8 bits
Scan type : Progressive
Bits/(Pixel*Frame) : 0.166
Stream size : 1.63 GiB (86%)
Title : Barbie Dolphin Magic 2017
Writing library : core 152 r2851 ba24899
Encoding settings : cabac=1 / ref=8 / deblock=1:-1:-1 / analyse=0x3:0x113 / me=hex / subme=9 / psy=1 / psy_rd=0.40:0.00 / mixed_ref=1 / me_range=16 / chroma_me=1 / trellis=2 / 8x8dct=1 / cqm=0 / deadzone=21,11 / fast_pskip=1 / chroma_qp_offset=-2 / threads=22 / lookahead_threads=1 / sliced_threads=0 / nr=0 / decimate=1 / interlaced=0 / bluray_compat=0 / constrained_intra=0 / bframes=5 / b_pyramid=2 / b_adapt=1 / b_bias=0 / direct=3 / weightb=1 / open_gop=0 / weightp=2 / keyint=250 / keyint_min=23 / scenecut=40 / intra_refresh=0 / rc_lookahead=50 / rc=2pass / mbtree=1 / bitrate=3675 / ratetol=1.0 / qcomp=0.60 / qpmin=0 / qpmax=69 / qpstep=4 / cplxblur=20.0 / qblur=0.5 / vbv_maxrate=50000 / vbv_bufsize=62500 / nal_hrd=none / filler=0 / ip_ratio=1.40 / aq=1:0.60
Language : English
Default : Yes
Forced : No

Audio #1
ID : 2
Format : AC-3
Format/Info : Audio Coding 3
Format settings, Endianness : Big
Codec ID : A_AC3
Duration : 1 h 3 min
Bit rate mode : Constant
Bit rate : 192 kb/s
Channel(s) : 2 channels
Channel positions : Front: L R
Sampling rate : 48.0 kHz
Frame rate : 31.250 FPS (1536 SPF)
Bit depth : 16 bits
Compression mode : Lossy
Stream size : 87.2 MiB (5%)
Title : DUB | ТЕТ
Language : Ukrainian
Service kind : Complete Main
Default : Yes
Forced : Yes

Audio #2
ID : 3
Format : AC-3
Format/Info : Audio Coding 3
Format settings, Endianness : Big
Codec ID : A_AC3
Duration : 1 h 3 min
Bit rate mode : Constant
Bit rate : 384 kb/s
Channel(s) : 6 channels
Channel positions : Front: L C R, Side: L R, LFE
Sampling rate : 48.0 kHz
Frame rate : 31.250 FPS (1536 SPF)
Bit depth : 16 bits
Compression mode : Lossy
Stream size : 174 MiB (9%)
Title : Original
Language : English
Service kind : Complete Main
Default : No
Forced : No

Text
ID : 4
Format : UTF-8
Codec ID : S_TEXT/UTF8
Codec ID/Info : UTF-8 Plain Text
Duration : 1 h 2 min
Bit rate : 83 b/s
Count of elements : 1696
Stream size : 38.4 KiB (0%)
Language : English
Default : No
Forced : No
Скріншоти:





 Трекер:    Зареєстрований   

Завантажити / скачати мультфільм українською



відео для новачків



 Зареєстрований:   2017-11-19 11:03
 Розмір:   1.88 GB 
 Оцінка мультфільму:   8/10 (Голосів: 12)
   
sergiyko.5 
Забанено
Забанено


З нами з: 25.02.16
Востаннє: 29.10.20
Повідомлень: 3648

2017-11-19 13:34  
Пишіть відгуки про мультфільм, хто подивився.
Arina_ 
Новенький


З нами з: 07.02.17
Востаннє: 28.02.21
Повідомлень: 4

2017-11-22 16:11  
Легкий сімейний мультик, дітям точно сподобається. Картинка гарна, переклад якісний.
Ваш часовий пояс: GMT + 2 Години

Нова тема   Відповісти