Війна за планету мавп / War for the Planet of the Apes (2017) Remux 1080p Ukr/Eng | Sub Ukr/Eng

Нові коментарі

Нова тема   Відповісти
Автор Повідомлення
Argentum 
VIP


З нами з: 25.09.11
Востаннє: 18.09.20
Повідомлень: 259

2017-11-18 18:01  
Війна за планету мавп / War for the Planet of the Apes (2017) Remux 1080p Ukr/Eng | Sub Ukr/Eng

Війна за планету мавп / War for the Planet of the Apes (2017) Remux 1080p Ukr/Eng | Sub Ukr/Eng


Жанр: бойовик, фантастика, пригодницький, драма
Країна: США



Кінокомпанія: Chernin Entertainment, River Road Entertainment, TSG Entertainment
Режисер: Метт Рівз
Актори: Енді Серкіс, Вуді Гаррельсон, Стів Зан, Карін Коновал, Ам'я Міллер, Террі Нотарі, Ті Олссон, Майкл Адамуейт

Сюжет:
У фільмі «Війна за планету мавп», третій частині всесвітньо відомої серії блокбастерів, Цезаря та його мавп втягнуто у смертельне протистояння з людським військом під орудою безжального Полковника. Після того, як мавпи зазнали неймовірних втрат, Цезар долає власні темні інстинкти й розпочинає особисту війну, аби помститися за свій рід. Врешті Цезар і Полковник сходяться лицем до лиця в епохальній битві, яка має вирішити долю обох народів та майбутнє усієї планети.


Тривалість: 02:20:09
Якість: Remux
Відео:
кодек:
розмір кадру: 1920 х 1080
бітрейт: 23,4 Мб/с

Аудіо # 1:
мова: українська
переклад: професійний дубльований
кодек: 5.1
бітрейт: 384 кб/с

Аудіо # 2:
мова: англійська
переклад: оригінал
кодек: -HD MA 7.1
бітрейт: 4780 кб/с

Аудіо # 3:
мова: англійська
переклад: оригінал
кодек: 5.1
бітрейт: 640 кб/

Субтитри 1-2 : (форсовані, повні)
мова: українська
тип: програмні (м'які)
формат: *.srt

Субтитри 3-4: (форсовані, повні)
мова: англійська
тип: програмні (м'які)
формат: *.srt
Info
General
Unique ID : 330202381293824437295544068302644674731 (0xF86AAA569E061AE3061E6FC1040B80AB)
Complete name : War.for.the.Planet.of.the.Apes.2017.Remux.1080p.Ukr.Eng.Hurtom.
Format :
Format version : Version 4
File size : 28.5 GiB
Duration : 2 h 20 min
Overall bit rate mode : Variable
Overall bit rate : 29.2 Mb/s
Movie name : War for the Planet of the Apes (2017)
Encoded date : UTC 2020-05-23 19:23:31
Writing application : v46.0.0 ('No Deeper Escape') 64-bit
Writing library : libebml v1.3.10 + v1.5.2
Cover : Yes
Attachments : cover.jpg

Video
ID : 1
Format : AVC
Format/Info : Advanced Video Codec
Format profile : [email protected]
Format settings : CABAC / 4 Ref Frames
Format settings, CABAC : Yes
Format settings, Reference : 4 frames
Codec ID : V_MPEG4/ISO/AVC
Duration : 2 h 20 min
Bit rate mode : Variable
Bit rate : 23.4 Mb/s
Maximum bit rate : 36.0 Mb/s
Width : 1 920 pixels
Height : 1 080 pixels
Display aspect ratio : 16:9
Frame rate mode : Constant
Frame rate : 23.976 (24000/1001) FPS
Color space : YUV
Chroma subsampling : 4:2:0
Bit depth : 8 bits
Scan type : Progressive
Bits/(Pixel*Frame) : 0.470
Stream size : 22.9 GiB (80%)
Title : AVC 1920*1080 @ 23.4 Mb/s
Language : Multiple languages
Default : Yes
Forced : Yes

Audio #1
ID : 2
Format : AC-3
Format/Info : Audio Coding 3
Commercial name : Dolby Digital
Codec ID : A_AC3
Duration : 2 h 20 min
Bit rate mode : Constant
Bit rate : 384 kb/s
Channel(s) : 6 channels
Channel layout : L R C LFE Ls Rs
Sampling rate : 48.0 kHz
Frame rate : 31.250 FPS (1536 SPF)
Compression mode : Lossy
Stream size : 385 MiB (1%)
Title : AC-3 5.1 @ 384 kb/s
Language : Ukrainian
Service kind : Complete Main
Default : Yes
Forced : Yes

Audio #2
ID : 3
Format : ES XLL
Format/Info : Digital Theater Systems
Commercial name : -HD Master Audio
Codec ID : A_DTS
Duration : 2 h 20 min
Bit rate mode : Variable
Bit rate : 4 780 kb/s
Channel(s) : 8 channels
Channel layout : C L R Ls Rs LFE Lb Rb
Sampling rate : 48.0 kHz
Frame rate : 93.750 FPS (512 SPF)
Bit depth : 24 bits
Compression mode : Lossless
Stream size : 4.68 GiB (16%)
Title : -HD MA 7.1 @ 4 780 kb/s
Language : English
Default : No
Forced : No

Audio #3
ID : 4
Format : AC-3
Format/Info : Audio Coding 3
Commercial name : Dolby Digital
Codec ID : A_AC3
Duration : 2 h 20 min
Bit rate mode : Constant
Bit rate : 640 kb/s
Channel(s) : 6 channels
Channel layout : L R C LFE Ls Rs
Sampling rate : 48.0 kHz
Frame rate : 31.250 FPS (1536 SPF)
Compression mode : Lossy
Stream size : 642 MiB (2%)
Title : AC-3 5.1 @ 640 kb/s
Language : English
Service kind : Complete Main
Default : No
Forced : No

Text #1
ID : 5
Format : UTF-8
Codec ID : S_TEXT/UTF8
Codec ID/Info : UTF-8 Plain Text
Duration : 2 h 10 min
Bit rate : 6 b/s
Count of elements : 193
Stream size : 6.64 KiB (0%)
Title : Forced
Language : Ukrainian
Default : Yes
Forced : Yes

Text #2
ID : 6
Format : UTF-8
Codec ID : S_TEXT/UTF8
Codec ID/Info : UTF-8 Plain Text
Duration : 2 h 18 min
Bit rate : 28 b/s
Count of elements : 782
Stream size : 28.6 KiB (0%)
Title : Full
Language : Ukrainian
Default : No
Forced : No

Text #3
ID : 7
Format : UTF-8
Codec ID : S_TEXT/UTF8
Codec ID/Info : UTF-8 Plain Text
Duration : 1 h 42 min
Bit rate : 5 b/s
Count of elements : 192
Stream size : 4.22 KiB (0%)
Title : Forced
Language : English
Default : No
Forced : No

Text #4
ID : 8
Format : UTF-8
Codec ID : S_TEXT/UTF8
Codec ID/Info : UTF-8 Plain Text
Duration : 2 h 8 min
Bit rate : 16 b/s
Count of elements : 750
Stream size : 15.5 KiB (0%)
Title : Full
Language : English
Default : No
Forced : No

Menu
00:00:00.000 : en:Chapter 01
00:05:05.888 : en:Chapter 02
00:09:06.712 : en:Chapter 03
00:12:14.108 : en:Chapter 04
00:18:21.016 : en:Chapter 05
00:25:04.503 : en:Chapter 06
00:30:17.398 : en:Chapter 07
00:34:13.092 : en:Chapter 08
00:37:46.347 : en:Chapter 09
00:42:54.446 : en:Chapter 10
00:49:31.802 : en:Chapter 11
00:54:14.626 : en:Chapter 12
00:58:49.817 : en:Chapter 13
01:05:24.128 : en:Chapter 14
01:10:18.380 : en:Chapter 15
01:14:53.822 : en:Chapter 16
01:18:59.192 : en:Chapter 17
01:25:35.672 : en:Chapter 18
01:29:37.372 : en:Chapter 19
01:34:22.823 : en:Chapter 20
01:39:27.711 : en:Chapter 21
01:43:48.222 : en:Chapter 22
01:48:45.393 : en:Chapter 23
01:55:20.580 : en:Chapter 24
01:58:04.702 : en:Chapter 25
02:02:33.929 : en:Chapter 26
02:05:54.797 : en:Chapter 27
02:12:51.213 : en:Chapter 28
Скріншоти




Джерело:
Особиста оцінка: 8 - мені сподобалося


Золотий реліз (завантажене не впливає на рейтинг)
 Трекер:    Зареєстрований   

Завантажити / скачати фільм українською



відео для новачків



 Зареєстрований:   2020-05-24 10:44
 Розмір:   28.55 GB 
 Оцінка фільму:   9.7/10 (Голосів: 3)
   
igor911 
Модератор відео


З нами з: 18.01.08
Востаннє: 18.09.20
Повідомлень: 14994

2017-11-18 18:21  
Argentum, не хотів дочекатись укр. 5.1 https://toloka.to/t78349-270#923541 , щоб продовжити життя реліза?
Argentum 
VIP


З нами з: 25.09.11
Востаннє: 18.09.20
Повідомлень: 259

2017-11-18 18:39  
igor911 написано:
Argentum, не хотів дочекатись укр. 5.1 https://toloka.to/t78349-270#923541 , щоб продовжити життя реліза?

Якщо з'явиться звук 5.1 я оновлю реліз. Але питання чи буде він взагалі? Blu-ray вже вийшов 24 жовтня. Ось

Electroz 
Відео Гуртом - підтримка та поширення
Відео Гуртом - підтримка та поширення


З нами з: 18.09.14
Востаннє: 19.09.20
Повідомлень: 4006

2017-11-18 18:46  
77997997 
VIP


З нами з: 26.02.13
Востаннє: 19.09.20
Повідомлень: 1123

2017-11-18 20:59  
Дуже імовірно, що Естонці помилились, звідки я брав інфу, і нашої 5.1 доріжки НЕ буде... Треба в них уточнити інформацію, особливо, про ДВД... (інтернет-магазин apollo.ee)
Uberwinder 
VIP


З нами з: 18.11.16
Востаннє: 18.09.20
Повідомлень: 280

2018-01-17 19:36  
Дякую за гарний фільм у форматі високої якості!
mutomba 
VIP


З нами з: 20.10.13
Востаннє: 18.09.20
Повідомлень: 361

2018-05-02 22:24  
А 5.1 до цього фільму ніде не з'явився?
mutomba 
VIP


З нами з: 20.10.13
Востаннє: 18.09.20
Повідомлень: 361

2018-05-18 22:43  
Кому цікаво - зробив от таке https://toloka.to/t90021
Argentum 
VIP


З нами з: 25.09.11
Востаннє: 18.09.20
Повідомлень: 259

2020-05-24 10:47  
Реліз оновлено! Замінив українську доріжку на AC-3 5.1. Прохання перезавантажити роздачу!

MakRA 
VIP


З нами з: 11.11.18
Востаннє: 19.09.20
Повідомлень: 1112

2020-05-24 12:33  
Argentum
Дякую! Також окрема подяка за вкладену обкладинку!)

Ваш часовий пояс: GMT + 2 Години

Нова тема   Відповісти