Барбі. Магія дельфінів / Barbie: Dolphin Magic (2017) Ukr/Eng

Нові коментарі

Нова тема   Відповісти
Автор Повідомлення
Anonymous 







2017-11-18 16:58  
Барбі. Магія дельфінів / Barbie: Dolphin Magic (2017) Ukr/Eng

Барбі. Магія дельфінів / Barbie: Dolphin Magic (2017) Ukr/Eng
Альтернативний постер



Жанр: анімація, пригодницький, сімейний
Країна: США



Кінокомпанія: Mattel Creations, Rainmaker Animation & Visual Effects
Режисер: Конрад Гелтен / Conrad Helten
Актори: Еріка Ліндбек/ Erica Lindbeck, Шеннон Чан-Кент / Shannon Chan-Kent, Казумі Еванс / Kazumi Evans, Клер Маграрет Корлет / Claire Margaret Corlett, Алісія Свейлз / Alyssya Swales, Едріан Петрів / Adrian Petriw, Марик Гендріксе / Maryke Hendrikse, Пол Добсон / Paul Dobson, Ґаррі Чалк / Garry Chalk

Сюжет:
У нових пригодах Барбі і її сестри вивчають яскравий підводний світ і знайомляться з дивовижними дельфінами.

Барбі та дівчата відправляються відвідати Кена, який проходить літнє стажування на коралових рифах проводячи дослідження та спостереження за дельфінами. Під час заглиблення в океан і вивчення рифів сестри зустрічають рідкісних дельфінів-самоцвітів, які відвідують цю місцину лише раз на рік. Ця дивовижна зустріч спонукає у дівчат бажання докладніше дізнатись про збереження коралів та про всіх морських мешканців, які в них живуть. Схоже, Барбі та її сестер чекає чергова захоплива пригода!


Тривалість: 01:03:28
Якість:
Відео:
кодек:
розмір кадру: 720x400
бітрейт: 2102 кб/с

Аудіо # 1:
мова: українська
переклад: професійний дубльований | студія LeDoyen
кодек: 5.1
бітрейт: 384 кб/с
примітка1: майже всі пісні також дубльовано
примітка2: з цим дубляжем також показували по ТЕТ
Інформація про дубляж:
Режисер дубляжу: Олена Бліннікова,
Бабрі - Наталка Денисенко
Кен - Андрій Соболєв
Айла - Юлія Перенчук,
Стейсі - Ксенія Гринько
Скіппер - Дарина Муращенко,
Челсі - Вероніка Лук'яненко
Марло - Олена Бліннікова,
Хьюго - Дмитро Гаврилов,
Комп'ютер - Дмитро Терещук
Аудіо # 2:
мова: англійська
переклад: оригінал
кодек: 5.1
бітрейт: 384 кб/с
Info
Код:
General
Complete name               : Barbie. Dolphin Magic (2017) [Ukr,Eng] [Hurtom].avi
Format                      : AVI
Format/Info                 : Audio Video Interleave
File size                   : 1.28 GiB
Duration                    : 1 h 3 min
Overall bit rate            : 2 883 kb/s
Movie name                  : Барбі. Магія дельфінів / Barbie: Dolphin Magic (2017) [Ukr,Eng] [Hurtom]
Genre                       : анімація, пригодницький, сімейний
Writing application         : VirtualDubModUkr 1.5.10.2 (build 2542/release)
Writing library             : VirtualDubMod build 2542/release
Comment                     : https://toloka.to/t85290

Video
ID                          : 0
Format                      : MPEG-4 Visual
Format profile              : Advanced [email protected]
Format settings             : BVOP1
Format settings, BVOP       : 1
Format settings, QPel       : No
Format settings, GMC        : No warppoints
Format settings, Matrix     : Default (MPEG)
Codec ID                    :
Codec ID/Hint               :
Duration                    : 1 h 3 min
Bit rate                    : 2 102 kb/s
Width                       : 720 pixels
Height                      : 400 pixels
Display aspect ratio        : 16:9
Frame rate                  : 23.976 (24000/1001) FPS
Color space                 : YUV
Chroma subsampling          : 4:2:0
Bit depth                   : 8 bits
Scan type                   : Progressive
Compression mode            : Lossy
Bits/(Pixel*Frame)          : 0.304
Stream size                 : 954 MiB (73%)
Writing library             : 67

Audio #1
ID                          : 1
Format                      : AC-3
Format/Info                 : Audio Coding 3
Commercial name             : Dolby Digital
Codec ID                    : 2000
Duration                    : 1 h 3 min
Bit rate mode               : Constant
Bit rate                    : 384 kb/s
Channel(s)                  : 6 channels
Channel layout              : L R C LFE Ls Rs
Sampling rate               : 48.0 kHz
Frame rate                  : 31.250 FPS (1536 SPF)
Bit depth                   : 16 bits
Compression mode            : Lossy
Stream size                 : 174 MiB (13%)
Alignment                   : Split accross interleaves
Interleave, duration        : 42  ms (1.00 video frame)
Interleave, preload duratio : 500  ms
Title                       : Ukr Dub [LeDoyen, Netflix]
Service kind                : Complete Main

Audio #2
ID                          : 2
Format                      : AC-3
Format/Info                 : Audio Coding 3
Commercial name             : Dolby Digital
Codec ID                    : 2000
Duration                    : 1 h 3 min
Bit rate mode               : Constant
Bit rate                    : 384 kb/s
Channel(s)                  : 6 channels
Channel layout              : L R C LFE Ls Rs
Sampling rate               : 48.0 kHz
Frame rate                  : 31.250 FPS (1536 SPF)
Bit depth                   : 16 bits
Compression mode            : Lossy
Stream size                 : 174 MiB (13%)
Alignment                   : Split accross interleaves
Interleave, duration        : 42  ms (1.00 video frame)
Interleave, preload duratio : 500  ms
Service kind                : Complete Main


Джерело:



01.02.2019 реліз оновлено - замінено український дубляж з запису ТЕТ (стерео) на ліцензійний 5.1

Подяка п. bgnt за наданий звук.


 Трекер:    Зареєстрований   

Завантажити / скачати мультфільм українською



відео для новачків



 Зареєстрований:   2019-02-01 23:42
 Розмір:   1.28 GB 
 Оцінка мультфільму:   6.7/10 (Голосів: 29)
 ЗАЛИШАЙТЕСЬ ЯКОМОГА ДОВШЕ НА РОЗДАЧІ! ЗАВАНТАЖИВ САМ - ДАЙ ЗАВАНТАЖИТИ ІНШИМ!
   
leicheman 
Відео Гуртом - фільмокрай
Відео Гуртом - фільмокрай


З нами з: 03.07.14
Востаннє: 27.10.20
Повідомлень: 5548

2018-08-17 06:41  
Anonymous написано:
цього разу ТЕТ не поскупився і дублював пісні також

Здається це дубляж зроблено спеціально для Нетфлікс у кінці мультика написано, що наша версія зроблено VSI International.
Інформація про озвучення

Бабрі - Наталка Денисенко
Кен - Андрій Соболєв
Айла - Юлія Перенчук
Стейсі - Ксенія Гринько
Скіппер - Дарина Миращенко
Челсі - Вероніка Лук'яненко
Марло - Олена Бліннікова
Хьюго - Дмитро Гаврилов
Комп'ютер - Дмитро Терещук
Режисер - Олена Бліннікова

Anonymous 







2019-02-01 23:42  
Реліз оновлено - замінено український дубляж з запису ТЕТ (стерео) на ліцензійний 5.1 з Нетфлікса
Ваш часовий пояс: GMT + 2 Години

Нова тема   Відповісти