Барбі. Магія дельфінів / Barbie: Dolphin Magic (2017) Ukr/Eng

Нові коментарі

Нова тема   Відповісти
Автор Повідомлення
Anonymous 







2017-11-18 16:58  
Барбі. Магія дельфінів / Barbie: Dolphin Magic (2017) Ukr/Eng

Барбі. Магія дельфінів / Barbie: Dolphin Magic (2017) Ukr/Eng
Альтернативний постер



Жанр: анімація, пригодницький, сімейний
Країна: США



Кінокомпанія: Mattel Creations, Rainmaker Animation & Visual Effects
Режисер: Конрад Гелтен / Conrad Helten
Актори: Еріка Ліндбек/ Erica Lindbeck, Шеннон Чан-Кент / Shannon Chan-Kent, Казумі Еванс / Kazumi Evans, Клер Маграрет Корлет / Claire Margaret Corlett, Алісія Свейлз / Alyssya Swales, Едріан Петрів / Adrian Petriw, Марик Гендріксе / Maryke Hendrikse, Пол Добсон / Paul Dobson, Ґаррі Чалк / Garry Chalk

Сюжет:
У нових пригодах Барбі і її сестри вивчають яскравий підводний світ і знайомляться з дивовижними дельфінами.

Барбі та дівчата відправляються відвідати Кена, який проходить літнє стажування на коралових рифах проводячи дослідження та спостереження за дельфінами. Під час заглиблення в океан і вивчення рифів сестри зустрічають рідкісних дельфінів-самоцвітів, які відвідують цю місцину лише раз на рік. Ця дивовижна зустріч спонукає у дівчат бажання докладніше дізнатись про збереження коралів та про всіх морських мешканців, які в них живуть. Схоже, Барбі та її сестер чекає чергова захоплива пригода!


Тривалість: 01:03:28
Якість:
Відео:
кодек:
розмір кадру: 720x400
бітрейт: 2102 кб/с

Аудіо # 1:
мова: українська
переклад: професійний дубльований
кодек: 2.0 [стерео]
бітрейт: 192 кб/с
примітка: цього разу ТЕТ не поскупився і дублював пісні також

Аудіо # 2:
мова: англійська
переклад: оригінал
кодек: 5.1
бітрейт: 384 кб/с
Info
Код:
General
Complete name               : Barbie. Dolphin Magic (2017) [Ukr,Eng] [Hurtom].avi
Format                      : AVI
Format/Info                 : Audio Video Interleave
File size                   : 1.19 GiB
Duration                    : 1 h 3 min
Overall bit rate            : 2 692 kb/s
Movie name                  : Барбі. Магія дельфінів / Barbie: Dolphin Magic (2017) [Ukr,Eng] [Hurtom]
Genre                       : анімація, пригодницький, сімейний
Writing application         : VirtualDubModUkr 1.5.10.2 (build 2542/release)
Writing library             : VirtualDubMod build 2542/release
Comment                     : https://toloka.to/t85290

Video
ID                          : 0
Format                      : MPEG-4 Visual
Format profile              : Advanced [email protected]
Format settings             : BVOP1
Format settings, BVOP       : 1
Format settings, QPel       : No
Format settings, GMC        : No warppoints
Format settings, Matrix     : Default (MPEG)
Codec ID                    :
Codec ID/Hint               :
Duration                    : 1 h 3 min
Bit rate                    : 2 102 kb/s
Width                       : 720 pixels
Height                      : 400 pixels
Display aspect ratio        : 16:9
Frame rate                  : 23.976 (24000/1001) FPS
Color space                 : YUV
Chroma subsampling          : 4:2:0
Bit depth                   : 8 bits
Scan type                   : Progressive
Compression mode            : Lossy
Bits/(Pixel*Frame)          : 0.304
Stream size                 : 954 MiB (78%)
Writing library             : 67

Audio #1
ID                          : 1
Format                      : AC-3
Format/Info                 : Audio Coding 3
Codec ID                    : 2000
Duration                    : 1 h 3 min
Bit rate mode               : Constant
Bit rate                    : 192 kb/s
Channel(s)                  : 2 channels
Channel positions           : Front: L R
Sampling rate               : 48.0 kHz
Frame rate                  : 31.250 FPS (1536 SPF)
Bit depth                   : 16 bits
Compression mode            : Lossy
Stream size                 : 87.2 MiB (7%)
Alignment                   : Split accross interleaves
Interleave, duration        : 42  ms (1.00 video frame)
Interleave, preload duratio : 500  ms
Title                       : Ukr Dub [TET] 2.0 [stereo] 192 Kbps [Hurtom-igor911, Neytreenor]
Service kind                : Complete Main

Audio #2
ID                          : 2
Format                      : AC-3
Format/Info                 : Audio Coding 3
Codec ID                    : 2000
Duration                    : 1 h 3 min
Bit rate mode               : Constant
Bit rate                    : 384 kb/s
Channel(s)                  : 6 channels
Channel positions           : Front: L C R, Side: L R, LFE
Sampling rate               : 48.0 kHz
Frame rate                  : 31.250 FPS (1536 SPF)
Bit depth                   : 16 bits
Compression mode            : Lossy
Stream size                 : 174 MiB (14%)
Alignment                   : Split accross interleaves
Interleave, duration        : 42  ms (1.00 video frame)
Interleave, preload duratio : 500  ms
Title                       : Eng
Service kind                : Complete Main
Скріншоти
будуть
Джерело:
Запис з ТБ - Neytreenor, синхронізація - igor911


 Трекер:    Зареєстрований   

Завантажити / скачати мультфільм українською



відео для новачків



 Зареєстрований:   2017-11-19 18:27
 Розмір:   1.19 GB 
 Оцінка мультфільму:   5.9/10 (Голосів: 23)
   
Anonymous 







2017-11-19 13:29  
1080p на роздачі
Anonymous 







2017-11-19 18:30  
avi можна завантажувати, скріни згодом, avc - як вийде блурей.
Ваш часовий пояс: GMT + 2 Години

Нова тема   Відповісти