Життя Девіда Ґейла (Гейла) / The Life of David Gale (2003) AVC Ukr/Eng | Sub Eng

Нові коментарі

Нова тема   Відповісти
Автор Повідомлення
Anonymous 







2017-11-18 16:30  
Життя Девіда Ґейла / The Life of David Gale (2003) AVC Ukr/Eng | Sub Eng



Жанр: трилер, драма, кримінальний
Країна: США, Німеччина, Велика Британія



Кінокомпанія: Universal Pictures, Intermedia Films, Dirty Hands Productions
Режисер: Алан Паркер / Alan Parker
Актори: Кейт Вінслет / Kate Winslet, Кевін Спейсі / Kevin Spacey, Лаура Лінні / Laura Linney, Рона Мітра / Rhona Mitra, Кліо Кінґ / Cleo King, Констанс Джонс / Constance Jones та інші

Сюжет:
Його злочин очевидний...Його покарання визначене...Його життя в її руках... Професор Девід Ґейл, авторитетний борець за скасування страти, опиняється за ґратами і незабаром буде страчений за жорстоке зґвалтування та вбивство своєї колеги. Навіть під загрозою смерті він навідріз відмовляється пролити світло на обставини справи. Але за три дні до виконання вироку він все-таки погоджується дати інтерв'ю журналістці Елізабет Блум, знаменитій своїми сенсаційними статтями. Розмова з Ґейлом переконує Елізабет у його невинуватості, але чи встигне вона з'ясувати, хто підставив професора й врятувати безневинно засудженого від смерті, кинувши виклик часу, що летить невблаганно?


Рейтинг MPAA: R - особам до 17 років обов'язкова присутність батьків або дорослого опікуна
Вікова категорія: 16+

Тривалість: 02:11:05
Якість: AVC
Відео:
кодек:
розмір кадру: 1092 х 464
бітрейт: 2828 кб/с

Аудіо # 1:
мова: українська
переклад: багатоголосий закадровий
кодек: 2.0 [стерео]
бітрейт: 192 кб/с

Аудіо # 2:
мова: англійська
переклад: оригінал
кодек: 5.1
бітрейт: 448 кб/с

Субтитри:
мова: англійська
тип: програмні (м'які)
формат: *.srt

Збережено оригінальні розділи, як на Blu-ray
Info та log
Код:
Complete name               : The Life of David Gale (2003) [Ukr,Eng sub.Eng] AVC [Hurtom].
Format                      :
Format version              : Version 4 / Version 2
File size                   : 3.18 GiB
Duration                    : 2 h 11 min
Overall bit rate            : 3 470 kb/s
Movie name                  : Життя Девіда Ґейла (Гейла) / The Life of David Gale (2003) [Ukr,Eng sub.Eng] AVC [Hurtom]
Released date               : 2003
Writing library             : libebml v1.3.5 + libmatroska v1.4.8
Cover                       : Yes
Comment                     : http://www.imdb.com/title/tt0289992/
Attachments                 : cover.jpg
ARTIST                      : Кейт Вінслет / Kate Winslet, Кевін Спейсі / Kevin Spacey, Лаура Лінні / Laura Linney, Рона Мітра / Rhona Mitra, Кліо Кінґ / Cleo King, Констанс Джонс / Constance Jones та інші
DIRECTOR                    : Алан Паркер / Alan Parker
GENRE                       : трилер, драма, кримінальний
SYNOPSIS                    : Його злочин очевидний...Його покарання визначене...Його життя в її руках... Професор Девід Ґейл, авторитетний борець за скасування страти, опиняється за ґратами і незабаром буде страчений за жорстоке зґвалтування та вбивство своєї колеги. Навіть під загрозою смерті він навідріз відмовляється пролити світло на обставини справи. Але за три дні до приведення вироку у виконання він все-таки погоджується дати інтерв'ю журналістці Елізабет Блум, знаменитій своїми сенсаційними статтями. Розмова з Ґейлом переконує Елізабет у його невинуватості, але чи встигне вона з'ясувати, хто підставив професора й врятувати безневинно засудженого від смерті, кинувши виклик часу, що летить невблаганно?
Url                         : https://toloka.to/t85289

Video
ID                          : 1
Format                      : AVC
Format/Info                 : Advanced Video Codec
Format profile              : [email protected]
Format settings             : CABAC / 12 Ref Frames
Format settings, CABAC      : Yes
Format settings, ReFrames   : 12 frames
Codec ID                    : V_MPEG4/ISO/AVC
Duration                    : 2 h 11 min
Bit rate                    : 2 828 kb/s
Width                       : 1 092 pixels
Height                      : 464 pixels
Display aspect ratio        : 2.35:1
Frame rate mode             : Constant
Frame rate                  : 23.976 (24000/1001) FPS
Color space                 : YUV
Chroma subsampling          : 4:2:0
Bit depth                   : 8 bits
Scan type                   : Progressive
Bits/(Pixel*Frame)          : 0.233
Stream size                 : 2.59 GiB (81%)
Title                       : Життя Девіда Ґейла (Гейла) / The Life of David Gale (2003) AVC [Rutracker]
Writing library             : core 114 r1913 5fd3dce
Encoding settings           : cabac=1 / ref=12 / deblock=1:-3:-2 / analyse=0x3:0x133 / me=umh / subme=10 / psy=1 / psy_rd=1.15:0.12 / mixed_ref=1 / me_range=32 / chroma_me=1 / trellis=2 / 8x8dct=1 / cqm=0 / deadzone=21,11 / fast_pskip=1 / chroma_qp_offset=-3 / threads=6 / sliced_threads=0 / nr=0 / decimate=1 / interlaced=0 / constrained_intra=0 / bframes=11 / b_pyramid=2 / b_adapt=2 / b_bias=0 / direct=1 / weightb=1 / open_gop=0 / weightp=2 / keyint=250 / keyint_min=23 / scenecut=40 / intra_refresh=0 / rc=crf / mbtree=0 / crf=20.2 / qcomp=0.70 / qpmin=0 / qpmax=69 / qpstep=4 / ip_ratio=1.20 / pb_ratio=1.20 / aq=1:0.85
Language                    : English
Default                     : Yes
Forced                      : No
Color range                 : Limited
Matrix coefficients         : BT.709

Audio #1
ID                          : 2
Format                      : AC-3
Format/Info                 : Audio Coding 3
Codec ID                    : A_AC3
Duration                    : 2 h 11 min
Bit rate mode               : Constant
Bit rate                    : 192 kb/s
Channel(s)                  : 2 channels
Channel positions           : Front: L R
Sampling rate               : 48.0 kHz
Frame rate                  : 31.250 FPS (1536 SPF)
Bit depth                   : 16 bits
Compression mode            : Lossy
Stream size                 : 180 MiB (6%)
Title                       : MVO [TTP, Volya Cine+ Hit HD] 2.0 [stereo] 192 Kbps [Hurtom-Electroz, Sando7]
Language                    : Ukrainian
Service kind                : Complete Main
Default                     : Yes
Forced                      : Yes

Audio #2
ID                          : 3
Format                      : AC-3
Format/Info                 : Audio Coding 3
Codec ID                    : A_AC3
Duration                    : 2 h 11 min
Bit rate mode               : Constant
Bit rate                    : 448 kb/s
Channel(s)                  : 6 channels
Channel positions           : Front: L C R, Side: L R, LFE
Sampling rate               : 48.0 kHz
Frame rate                  : 31.250 FPS (1536 SPF)
Bit depth                   : 16 bits
Compression mode            : Lossy
Stream size                 : 420 MiB (13%)
Title                       : Original, 5.1 448 Kbps
Language                    : English
Service kind                : Complete Main
Default                     : No
Forced                      : No

Text
ID                          : 4
Format                      : UTF-8
Codec ID                    : S_TEXT/UTF8
Codec ID/Info               : UTF-8 Plain Text
Duration                    : 2 h 7 min
Bit rate                    : 65 b/s
Count of elements           : 1417
Stream size                 : 60.5 KiB (0%)
Title                       : Eng full
Language                    : English
Default                     : No
Forced                      : No

Menu
00:00:39.000                : :01. News Magazine
00:06:35.000                : :02. Churches and Prisons
00:13:43.153                : :03. Ellis
00:18:52.835                : :04. Gale's Lecture
00:25:40.530                : :05. The Party
00:33:42.258                : :06. Batter's Box
00:42:02.754                : :07. Goth Girl Tour
00:45:49.000                : :08. You Know I'm Innocent
00:52:18.989                : :09. Downward Spiral
00:59:42.137                : :10. Off the Wagon
01:02:26.884                : :11. A Small Difficult Thing
01:07:20.925                : :12. Motel Video
01:13:58.193                : :13. Cowboy Cat & Mouse
01:19:07.876                : :14. Make It Stop
01:27:18.988                : :15. Death Is a Gift
01:32:15.114                : :16. Reenactment
01:42:46.990                : :17. Dusty's Cabin
01:47:32.690                : :18. Give Me the Time
01:58:55.659                : :19. Media Frenzy/Barcelona
02:03:29.000                : :20. Key to Your Freedom/End Titles


Код:
[info]: frame I:1855 Avg QP:20.07 size: 58127 PSNR Mean Y:43.87 U:51.20 V:51.89 Avg:45.18 Global:44.44
[info]: frame P:32955 Avg QP:20.19 size: 26312 PSNR Mean Y:44.85 U:53.65 V:54.35 Avg:46.10 Global:43.81
[info]: frame B:153778 Avg QP:22.23 size: 11739 PSNR Mean Y:41.96 U:51.33 V:52.06 Avg:43.39 Global:42.79
[info]: consecutive B-frames: 2.1% 1.0% 3.0% 12.3% 15.7% 25.8% 8.7% 4.2% 5.5% 5.8% 4.1% 11.8%
[info]: mb I I16..4: 6.9% 81.5% 11.6%
[info]: mb P I16..4: 1.0% 13.9% 1.2% P16..4: 42.4% 24.4% 5.4% 0.2% 0.2% skip:11.2%
[info]: mb B I16..4: 0.1% 1.7% 0.1% B16..8: 40.1% 11.7% 3.7% direct: 8.7% skip:33.9% L0:42.2% L1:46.0% BI:11.8%
[info]: 8x8 transform intra:86.5% inter:59.6%
[info]: coded y,uvDC,uvAC intra: 91.7% 65.7% 24.9% inter: 33.3% 18.6% 0.4%
[info]: i16 v,h,dc,p: 53% 17% 16% 14%
[info]: i8 v,h,dc,ddl,ddr,vr,hd,vl,hu: 9% 9% 13% 9% 13% 12% 12% 11% 13%
[info]: i4 v,h,dc,ddl,ddr,vr,hd,vl,hu: 9% 25% 4% 7% 12% 12% 11% 10% 11%
[info]: i8c dc,h,v,p: 38% 30% 21% 11%
[info]: Weighted P-Frames: Y:9.5% UV:3.5%
[info]: ref P L0: 39.5% 11.3% 21.5% 6.5% 6.3% 3.5% 3.7% 1.7% 1.9% 1.3% 1.5% 1.2% 0.1% 0.0%
[info]: ref B L0: 68.4% 13.9% 6.4% 3.5% 2.3% 1.9% 1.4% 0.9% 0.8% 0.4% 0.2%
[info]: ref B L1: 91.3% 8.7%
[info]: SSIM Mean Y:0.9664377 (14.741db)
[info]: PSNR Mean Y:42.486 U:51.738 V:52.456 Avg:43.878 Global:42.962 kb/s:2827.57

encoded 188588 frames, 6.33 fps, 2827.58 kb/s


Джерело: &
Подяка Sando7 за запис з ТБ, та Electroz'у за синхронізацію.


Срібний реліз (на рейтинг впливає 50% завантаженого)
 Трекер:    Зареєстрований   

Завантажити / скачати фільм українською



відео для новачків



 Зареєстрований:   2017-11-22 22:42
 Розмір:   3.18 GB 
 Оцінка фільму:   7.3/10 (Голосів: 41)
   
arch11 
Новенький


З нами з: 27.04.15
Востаннє: 14.12.17
Повідомлень: 19

2017-11-19 20:41  
Геніальний фільм! Рекомендую усім!! Зарані найщиріша подяка релізерам!!!
Sllavko 
Свій


З нами з: 10.06.12
Востаннє: 12.12.17
Повідомлень: 107

2017-11-25 18:50  
емоційно важкий. 10/10
Victor_Scythian 
Свій


З нами з: 06.01.17
Востаннє: 14.12.17
Повідомлень: 100

2017-11-25 21:30  
Кевін Спейсі? Да, пішов під три чорти педофіл!
isaew 
Новенький


З нами з: 10.05.09
Востаннє: 10.12.17
Повідомлень: 3

2017-11-26 13:20  
Victor_Scythian
це ще не доведено.
Якщо його виправдають,ви будете вибачатися письмово?

Neadekvat87 
Новенький


З нами з: 09.09.17
Востаннє: 12.12.17
Повідомлень: 3

2017-11-28 10:34  
Чув у новинах, що Спейсі став священником? Cry (1)
Ваш часовий пояс: GMT + 2 Години

Нова тема   Відповісти