Леді Баг та Супер-Кіт / Miraculous, Tales of Ladybug and Cat Noir (Сезон 1) (2015) 1080p Ukr/Eng | sub Eng

Нові коментарі

Нова тема   Відповісти
Автор Повідомлення
sergiyko.5 
Забанено
Забанено


З нами з: 25.02.16
Востаннє: 29.10.20
Повідомлень: 3648

2017-11-17 12:19  


Леді Баг та Супер-Кіт / Miraculous, Tales of Ladybug and Cat Noir (Сезон 1) (2015) 1080p Ukr/Eng | sub Eng

Леді Баг та Супер-Кіт / Miraculous, Tales of Ladybug and Cat Noir (Сезон 1) (2015) 1080p Ukr/Eng | sub Eng

Жанр: Пригоди, комедія сімейний
Країна: Франція
Режисер: Томас Аструк
Актори: Анук Хатбой, Бенжамін Болен, Ентоні Том

Сюжет:
Адріан і Марінет - старшокласники, майже як всі інші. При найменшій загрозі Парижу вони стають Леді Баг і Котом Нуар. Їх місія - захопити акум (темних метеликів), які перетворюють людей в супер-лиходіїв. Коли герої об'єднуються, кожен з них не знає справжньої особистості іншого. Марінет не знає, що Кот Нуар насправді Адріан - хлопчик в якого вона таємно закохана, а Адріан, чиє серце б'ється заради Леді Баг, не знає, що під маскою супер-героїні ховається мила і вітряна однокласниця.




Тривалість: 1 серія: 21:48 (цілком серій: 26)
Якість:

Відео: розмір кадру: 1920 х 1080 бітрейт: 5390 кб/с
Аудіо #1: мова: українська переклад: багатоголосий закадровий кодек: 2.0 бітрейт: 192 кб/с
Джерело озвучення:
Аудіо #2: мова: англійська переклад: професійний дубльований кодек: 2.0 бітрейт: 128 кб/с
Субтитри: мова: англійська тип: програмні (м'які) формат: *.srt
Перелік серій
01 Негода
02 Злолюстратор
03 Леді Вай-Фай
04 Принцеса ароматів
05 Злий Купійдон
06 Голуб
07 Пікселатор
08 Поліцейський Роджер
09 Бульбашка
10 Гіпнотезер
11 Копікіт
12 Гравець
13 Людина-звір
14 Темний лицар
15 Фараон
16 Повелтелька часу
17 Страшко
18 Ляльковик
19 Мім
20 Злий гітарист
21 Рефлекта
22 Початок
23 Кам'яне серце
24 Антибаг
25 Кунг фут
26 Вольпіна
Про файл:
General
Unique ID : 244248104788823280754741996256859779532 (0xB7C07950ACF6EF01914046BD4D53F1CC)
Complete name : E:\MULTFILMS\Miraculous Tales of Ladybug and Cat Noir\Miraculous Tales of Ladybug and Cat Noir 1080p \Miraculous Tales of Ladybug and Cat Noir S01 1080p \Miraculous.Tales.of.Ladybug.and.Cat.Noir.S01E03.Lady.Wifi.1080p..Ukr.Eng.
Format :
Format version : Version 4
File size : 806 MiB
Duration : 21 min 50 s
Overall bit rate mode : Variable
Overall bit rate : 5 161 kb/s
Movie name : Miraculous Tales of Ladybug and Cat Noir S01 1080p by sergiyko
Encoded date : UTC 2017-11-18 20:09:04
Writing application : v17.0.0 ('Be Ur Friend') 64-bit
Writing library : libebml v1.3.5 + v1.4.8
Cover : Yes
Attachments : cover.jpeg

Video
ID : 1
Format : AVC
Format/Info : Advanced Video Codec
Format profile : [email protected]
Format settings : CABAC / 3 Ref Frames
Format settings, CABAC : Yes
Format settings, ReFrames : 3 frames
Codec ID : V_MPEG4/ISO/AVC
Duration : 21 min 50 s
Bit rate mode : Variable
Bit rate : 4 640 kb/s
Maximum bit rate : 6 960 kb/s
Width : 1 920 pixels
Height : 1 080 pixels
Display aspect ratio : 16:9
Frame rate mode : Constant
Frame rate : 25.000 FPS
Color space : YUV
Chroma subsampling : 4:2:0
Bit depth : 8 bits
Scan type : Progressive
Bits/(Pixel*Frame) : 0.090
Stream size : 716 MiB (89%)
Title : S01E04 Lady Wifi
Writing library : core 118
Encoding settings : cabac=1 / ref=3 / deblock=1:0:0 / analyse=0x1:0x111 / me=umh / subme=10 / psy=1 / psy_rd=1.00:0.00 / mixed_ref=1 / me_range=24 / chroma_me=1 / trellis=2 / 8x8dct=0 / cqm=0 / deadzone=21,11 / fast_pskip=1 / chroma_qp_offset=-2 / threads=3 / sliced_threads=0 / nr=0 / decimate=1 / interlaced=0 / bluray_compat=0 / constrained_intra=0 / bframes=2 / b_pyramid=0 / b_adapt=2 / b_bias=0 / direct=3 / weightb=1 / open_gop=0 / weightp=2 / keyint=50 / keyint_min=26 / scenecut=0 / intra_refresh=0 / rc_lookahead=0 / rc=2pass / mbtree=1 / bitrate=4640 / ratetol=1.0 / qcomp=0.50 / qpmin=6 / qpmax=51 / qpstep=4 / cplxblur=20.0 / qblur=0.5 / vbv_maxrate=6960 / vbv_bufsize=9280 / nal_hrd=vbr / ip_ratio=1.40 / aq=1:1.00
Language : English
Default : Yes
Forced : No

Audio #1
ID : 2
Format : AC-3
Format/Info : Audio Coding 3
Commercial name : Dolby Digital
Codec ID : A_AC3
Duration : 21 min 50 s
Bit rate mode : Constant
Bit rate : 192 kb/s
Channel(s) : 2 channels
Channel layout : L R
Sampling rate : 48.0 kHz
Frame rate : 31.250 FPS (1536 SPF)
Bit depth : 16 bits
Compression mode : Lossy
Stream size : 30.0 MiB (4%)
Title : MOV | Піксель
Language : Ukrainian
Service kind : Complete Main
Default : Yes
Forced : Yes

Audio #2
ID : 3
Format : AC-3
Format/Info : Audio Coding 3
Commercial name : Dolby Digital
Codec ID : A_AC3
Duration : 21 min 50 s
Bit rate mode : Constant
Bit rate : 384 kb/s
Channel(s) : 6 channels
Channel layout : L R C LFE Ls Rs
Sampling rate : 48.0 kHz
Frame rate : 31.250 FPS (1536 SPF)
Bit depth : 16 bits
Compression mode : Lossy
Stream size : 60.0 MiB (7%)
Title : Netflix
Language : English
Service kind : Complete Main
Default : No
Forced : No

Text
ID : 4
Format : UTF-8
Codec ID : S_TEXT/UTF8
Codec ID/Info : UTF-8 Plain Text
Duration : 21 min 7 s
Bit rate : 63 b/s
Count of elements : 376
Stream size : 9.77 KiB (0%)
Title : Netflix
Language : English
Default : No
Forced : No
Скріншоти:



Запис/зведення: sergiyko


Бронзовий реліз (на рейтинг впливає 75% завантаженого)
 Трекер:    Зареєстрований   

Завантажити / скачати мультфільм українською



відео для новачків



 Зареєстрований:   2019-04-02 17:03
 Розмір:   22.31 GB 
 Оцінка мультсеріалу:   9.8/10 (Голосів: 14)
   
sergiyko.5 
Забанено
Забанено


З нами з: 25.02.16
Востаннє: 29.10.20
Повідомлень: 3648

2017-11-18 23:21  
Додав 1,4 серії.
sergiyko.5 
Забанено
Забанено


З нами з: 25.02.16
Востаннє: 29.10.20
Повідомлень: 3648

2017-11-22 12:58  
Торент оновлено. Додав 6,10,22 серії.
sergiyko.5 
Забанено
Забанено


З нами з: 25.02.16
Востаннє: 29.10.20
Повідомлень: 3648

2017-12-04 19:46  
Додав нові серії.
troubless 
Свій


З нами з: 15.06.11
Востаннє: 23.04.21
Повідомлень: 58

2017-12-04 23:34  
Безкінечне завантаження, доходить до 30% потім падає до 28,6% і так по колу.
leter 
Новенький


З нами з: 29.06.16
Востаннє: 19.03.21
Повідомлень: 14

2017-12-05 08:59  
Дякую! Давайте стiльки i у 720p.
sergiyko.5 
Забанено
Забанено


З нами з: 25.02.16
Востаннє: 29.10.20
Повідомлень: 3648

2017-12-05 15:05  
Оновив торент-файл.
Ігор Вінський 
VIP


З нами з: 17.03.11
Востаннє: 22.04.21
Повідомлень: 439

2017-12-10 20:45  
Насамперед дякую за роботу над серіялом. Гарний і оптимістичний загалом він. Щоправда серія восьма два рази. При наступному оновленні будь ласка виправте це. Сподіваюся що весь сезон буде тут.
sergiyko.5 
Забанено
Забанено


З нами з: 25.02.16
Востаннє: 29.10.20
Повідомлень: 3648

2018-02-04 19:09  
Додав 9 нових серій, сезон повний. Приємного перегляду!
liosik2002 
Свій


З нами з: 28.11.13
Востаннє: 20.04.21
Повідомлень: 82

2018-05-02 14:54  
дуж дякую
sergiyko.5 
Забанено
Забанено


З нами з: 25.02.16
Востаннє: 29.10.20
Повідомлень: 3648

2019-04-02 16:36  
Виправлено список серій, прохання до завантаживших змінити нумерацію згідно зі списком нижче:
скріни:


DarkAn 
Новенький


З нами з: 28.11.09
Востаннє: 17.04.21
Повідомлень: 1

2019-10-08 22:04  
Вітаю! дякую за роботу!
помітив що з новою нумерацією серій переплутані серії 22 та 23...
першою повинна іти
Ladybug.and.Cat.Noir.Origins
а потім
Stoneheart.Origins.2
а то сенс зовсім втрачається

sergiyko.5 
Забанено
Забанено


З нами з: 25.02.16
Востаннє: 29.10.20
Повідомлень: 3648

2019-10-08 22:16  
DarkAn
Дивиться з цього релізу https://toloka.to/t100269
Там і перелік правильний і озвучка краща.

yoto08 
Новенький


З нами з: 23.12.10
Востаннє: 20.04.21
Повідомлень: 14

2020-11-06 17:04  
Наразі відбувається озвучання нового епізоду, який ще дуже нескоро покажуть по Плюс Плюс.
Якщо хочете першими подивитися - переходьте до релізу за посиланням https://toloka.to/t115851
Підтримайте будь ласка!

Ваш часовий пояс: GMT + 2 Години

Нова тема   Відповісти