Вартові джунглів / Les As de la Jungle (2017) 1080p Ukr/Fre | Sub Fre

Нові коментарі

Нова тема   Відповісти
Автор Повідомлення
Anonymous 







2017-11-17 09:10  
Вартові джунглів / Les As de la Jungle (2017) 1080p Ukr/Fre | Sub Fre

Вартові джунглів / Les As de la Jungle (2017) 1080p Ukr/Fre | Sub Fre


Жанр: анімація, пригодницький, сімейний
Країна: Франція



Кінокомпанія: TAT Productions, Master Films, Vanilla Seed, France Télévisions, Centre National de la Cinématographie (CNC), Région Midi-Pyrénées, Procirep, Angoa
Режисер: Девід Ало / David Alaux
Ролі озвучують: Поль Борне / Paul Borne, Філіпп Бозо / Philippe Bozo, Паскаль Казанова / Pascal Casanova, Еммануель Кюртіль / Emmanuel Curtil, Селін Монсарра / Céline Montsarrat, Лоран Морто / Laurent Morteau та інші

Сюжет:
Пінгвін Моріс має незвичайний тигровий окрас, але всередині він відчуває себе справжнім тигром - героєм, якого потребують джунглі. Разом зі своєю енергійною командою друзів Моріс стоїть на сторожі справедливості та порядку. Правда, не завжди у них це добре виходить... Злісна коала Ігор із допомогою армії тупуватих бабуїнів хоче знищити джунглі раз і назавжди. Це справжній виклик для Вартових джунглів! Вони нікому не дадуть знищити свій дім...
Офіційний український трейлер:

Вікова категорія: 6+
Тривалість: 01:37:06
Якість: 1080p [Hurtom]
Відео:
кодек:
розмір кадру: 1920х804
бітрейт: 6132 кб/с [crf=16.8]
примітка: ріп з якіснішого французького блурея

Аудіо:
мова: українська
переклад: професійний дубльований | студія AAA-Sound
кодек: 5.1
бітрейт: 384 кб/с
Інформація про дубляж
Режисер: Олександр Єфімов
Ролі дублювали: Дмитро Гаврилов, Ольга Радчук, Андрій Альохін, Катерина Брайковська, Юрій Ребрик, Михайло Кришталь, Ярослав Чорненький, Катерина Буцька, Анатолій Зіновенко, Кирило Нікітенко, Юлія Перенчук, Павло Скороходько та інші.

Мультфільм дубльовано студією AAA-Sound у 2017 році на замовлення компанії Вольґа Україна.
Аудіо # 2:
мова: французька
переклад: оригінал
кодек: 5.1
бітрейт: 640 кб/с

Субтитри:
мова: французька (SDH кольорові)
тип: пререндерні
формат: pgs

Збережено оригінальні розділи, як на Blu-ray
Info та log
Код:
Complete name               : Les As de la Jungle (2017) [Ukr,Fre sub.Fre] 1080p [Hurtom].
Format                      :
Format version              : Version 4 / Version 2
File size                   : 4.86 GiB
Duration                    : 1 h 37 min
Overall bit rate            : 7 168 kb/s
Movie name                  : Вартові джунглів / Les As de la Jungle (2017) [Ukr,Fre sub Fre] 1080p [Hurtom]
Released date               : 2017
Encoded date                : UTC 2018-01-18 18:26:48
Writing application         : v20.0.0 ('I Am The Sun') 64-bit
Writing library             : libebml v1.3.5 + v1.4.8
Cover                       : Yes
Comment                     : http://www.imdb.com/title/tt6314690/
Attachments                 : cover.jpg / cover.jpg
ARTIST                      : Поль Борне / Paul Borne, Філіпп Бозо / Philippe Bozo, Паскаль Казанова / Pascal Casanova, Еммануель Кюртіль / Emmanuel Curtil, Селін Монсарра / Céline Montsarrat, Лоран Морто / Laurent Morteau та інші
DIRECTOR                    : Девід Ало / David Alaux
GENRE                       : анімація, пригодницький, сімейний
SYNOPSIS                    : Пінгвін Моріс має незвичайний тигровий окрас, але всередині він відчуває себе справжнім тигром - героєм, якого потребують джунглі. Разом зі своєю енергійною командою друзів Моріс стоїть на сторожі справедливості та порядку. Правда, не завжди у них це добре виходить... Злісна коала Ігор із допомогою армії тупуватих бабуїнів хоче знищити джунглі раз і назавжди. Це справжній виклик для Вартових джунглів! Вони нікому не дадуть знищити свій дім...
Url                         : https://toloka.to/t85263

Video
ID                          : 1
Format                      : AVC
Format/Info                 : Advanced Video Codec
Format profile              : [email protected]
Format settings             : CABAC / 5 Ref Frames
Format settings, CABAC      : Yes
Format settings, ReFrames   : 5 frames
Codec ID                    : V_MPEG4/ISO/AVC
Duration                    : 1 h 37 min
Bit rate                    : 6 132 kb/s
Width                       : 1 920 pixels
Height                      : 804 pixels
Display aspect ratio        : 2.40:1
Frame rate mode             : Constant
Frame rate                  : 24.000 FPS
Color space                 : YUV
Chroma subsampling          : 4:2:0
Bit depth                   : 8 bits
Scan type                   : Progressive
Bits/(Pixel*Frame)          : 0.166
Stream size                 : 4.16 GiB (86%)
Title                       : Вартові джунглів / Les As de la Jungle (2017) 1080p [Hurtom, FRENCH BD]
Writing library             : core 152 r2851 ba24899
Encoding settings           : cabac=1 / ref=5 / deblock=1:1:1 / analyse=0x3:0x133 / me=umh / subme=10 / psy=1 / psy_rd=0.40:0.00 / mixed_ref=1 / me_range=32 / chroma_me=1 / trellis=2 / 8x8dct=1 / cqm=0 / deadzone=21,11 / fast_pskip=0 / chroma_qp_offset=-2 / threads=12 / lookahead_threads=2 / sliced_threads=0 / nr=0 / decimate=1 / interlaced=0 / bluray_compat=0 / constrained_intra=0 / bframes=8 / b_pyramid=2 / b_adapt=2 / b_bias=0 / direct=3 / weightb=1 / open_gop=0 / weightp=2 / keyint=240 / keyint_min=24 / scenecut=40 / intra_refresh=0 / rc_lookahead=60 / rc=crf / mbtree=0 / crf=16.8 / qcomp=0.60 / qpmin=0 / qpmax=69 / qpstep=4 / vbv_maxrate=62500 / vbv_bufsize=78125 / crf_max=0.0 / nal_hrd=none / filler=0 / ip_ratio=1.40 / pb_ratio=1.30 / aq=1:0.60
Language                    : French
Default                     : Yes
Forced                      : No

Audio #1
ID                          : 2
Format                      : AC-3
Format/Info                 : Audio Coding 3
Codec ID                    : A_AC3
Duration                    : 1 h 37 min
Bit rate mode               : Constant
Bit rate                    : 384 kb/s
Channel(s)                  : 6 channels
Channel positions           : Front: L C R, Side: L R, LFE
Sampling rate               : 48.0 kHz
Frame rate                  : 31.250 FPS (1536 SPF)
Bit depth                   : 16 bits
Compression mode            : Lossy
Stream size                 : 267 MiB (5%)
Title                       : Dub [AAA-Sound, iTunes] 5.1 384 Kbps
Language                    : Ukrainian
Service kind                : Complete Main
Default                     : Yes
Forced                      : Yes

Audio #2
ID                          : 3
Format                      : AC-3
Format/Info                 : Audio Coding 3
Codec ID                    : A_AC3
Duration                    : 1 h 37 min
Bit rate mode               : Constant
Bit rate                    : 640 kb/s
Channel(s)                  : 6 channels
Channel positions           : Front: L C R, Side: L R, LFE
Sampling rate               : 48.0 kHz
Frame rate                  : 31.250 FPS (1536 SPF)
Bit depth                   : 16 bits
Compression mode            : Lossy
Stream size                 : 445 MiB (9%)
Title                       : Original, 5.1 640 Kbps
Language                    : French
Service kind                : Complete Main
Default                     : No
Forced                      : No

Text
ID                          : 4
Format                      : PGS
Muxing mode                 : zlib
Codec ID                    : S_HDMV/PGS
Codec ID/Info               : Picture based subtitle format used on BDs/HD-DVDs
Duration                    : 1 h 37 min
Bit rate                    : 25.5 kb/s
Count of elements           : 2478
Stream size                 : 17.7 MiB (0%)
Title                       : French SDH Colored
Language                    : French
Default                     : No
Forced                      : No

Menu
00:00:00.000                : en:Chapter 1
00:09:29.583                : en:Chapter 2
00:18:42.333                : en:Chapter 3
00:24:51.291                : en:Chapter 4
00:31:55.708                : en:Chapter 5
00:39:47.916                : en:Chapter 6
00:48:11.166                : en:Chapter 7
00:58:14.500                : en:Chapter 8
01:04:07.166                : en:Chapter 9
01:12:18.583                : en:Chapter 10
01:21:19.583                : en:Chapter 11
01:29:42.875                : en:Chapter 12

Код:
frame I:1319  Avg QP:14.94  size:253859
frame P:40874 Avg QP:16.88  size: 61662
frame B:97635 Avg QP:19.71  size: 16492
consecutive B-frames:  6.7%  7.5% 19.6% 23.4%  8.6% 32.0%  0.9%  0.8%  0.6%
Скріншоти:
Джерело:
Подяка сайту uafilm.tv за придбання української доріжки.

18.01.2018 реліз оновлено до 'а, прохання перезавантажити торрент.


 Трекер:    Зареєстрований   

Завантажити / скачати мультфільм українською



відео для новачків



 Зареєстрований:   2018-01-18 20:35
 Розмір:   4.86 GB 
 Оцінка мультфільму:   6.6/10 (Голосів: 31)
   
Інші релізи
khaled 
Поважний учасник


З нами з: 30.06.09
Востаннє: 04.03.21
Повідомлень: 191

2017-11-27 17:56  
Коли чекати. А то останнім часом анонси з'являються, а релізи за 2,3-6 місяців... Риторичне питання: набіса тоді анонс?! (Останнє, не тільки до Anonymous)
Anonymous 







2017-11-27 18:03  
khaled, проблема у відсутності української доріжки з російського айтюнсу (там вона 5.1, в українському лише стерео) в інтернеті. Як тільки вона з'явиться - буде реліз. Або охочі її можуть придбати і надати або викласти свій реліз.
bot 
робот


З нами з: 30.09.07
Востаннє: 26.05.05
Повідомлень: 27312

2017-12-02 16:30  
Тему перенесено з Анонси релізів до форуму Мультфільми в HD


igor911

ika1963 
Відео Гуртом - дизайнер
Відео Гуртом - дизайнер


З нами з: 13.05.10
Востаннє: 03.03.21
Повідомлень: 305

2017-12-03 01:46  
Є сенс дивитись тільки з-за перекладу, а так фільм повний "буль-буль", як казав онук-"тигреня"...
Anonymous 







2018-01-18 20:37  
Реліз оновлено до 'а, прохання перезавантажити торрент.
Volodymyr82 
Попереджень: 2
Попереджень: 2 


З нами з: 30.09.15
Востаннє: 21.02.21
Повідомлень: 30

2020-12-17 14:43  
Привіт. Станьте, будь ласка, ось на цю роздачу.


п.2.3, п.3.4. https://img.hurtom.com/image/C36e, видано igor911
Anonymous 







2020-12-17 15:06  
Volodymyr82 написано:
Привіт. Станьте, будь ласка, ось на цю роздачу.

Володимире, тут так не робиться - тобі всі бігом стали на роздачу, а ти одразу тікаєш з роздачі після завантаження.

Ваш часовий пояс: GMT + 2 Години

Нова тема   Відповісти