Американська історія жаху (Сезон 2) / American Horror Story (Season 2) (2012) 720p Ukr/Eng

Нові коментарі

Нова тема   Відповісти
Останній раз роздавалося Moroz Andrii (2020-11-25)
Автор Повідомлення
Anonymous 







2017-11-16 21:02  
Американська історія жаху (Сезон 2) / American Horror Story (Season 2) (2012) 720p Ukr/Eng



Жанр: психологічний, жахи, трилер
Країна: США



Кінокомпанія: 20th Century Fox Television, Ryan Murphy Productions
Режисер: Райан Мерфі, Бред Фалчек
Актори: Закарі Квінто, Джозеф Файнс, Сара Полсон, Еван Пітерс, Лілі Рейб, Ліззі Брошере, Джеймс Кромвел, Джессіка Ленж

Сюжет:
Дія розгортається в 1964 році в психіатричній клініці для душевнохворих злочинців «Брайркліфф», розташованої на східному узбережжі США. Колись у цьому будинку знаходилася лікарня для хворих на туберкульоз. Пізніше воно перейшло у володіння католицької церкви, і монсеньйор Тімоті Говард заснував тут свою клініку. Управляє закладом владна черниця сестра Джуд, а допомагає їй сестра Мері Юніс. Журналістка Лана Вінтерс, що займається висвітленням у пресі серії жорстоких вбивств молодих жінок приїжджає в «Брайркліфф », щоб поспілкуватися з одним з головних підозрюваних у цій справі - Кітом Вокером. Але ставши мимовільним свідком звірств , що відбуваються всередині, вона, за примхою сестри Джуд, сама стає однією з пацієнток. Що ховається за закритими дверима «Брайркліфф»? Чи є хоч одна розсудлива людина в цій темниці? І чи можна покинути це зловісне місце живим?


Тривалість: 1 серія: ~ 45 хв. (цілком серій: 13)
Перелік серій
1. Welcome to Briarcliff
2. Tricks and Treats
3. Nor'easter
4. I Am Anne Frank: Part 1
5. I Am Anne Frank: Part 2
6. The Origins of Monstrosity
7. Dark Cousin
8. Unholy Night
9. The Coat Hanger
10. The Name Game
11. Spilt Milk
12. Continuum
13. Madness Ends
Якість:
Відео:
кодек:
розмір кадру: 1278 х 720
бітрейт: ~ 7000 кб/с

Аудіо # 1:
мова: українська
переклад: багатоголосий закадровий
кодек: 2.0
бітрейт: 192 кб/с
примітка: у 12й серії українське озвучення відсутнє, є українські субтитри

Джерело озвучення:


Аудіо # 2:
мова: англійська
переклад: оригінал
кодек: 5.1
бітрейт: 384 кб/с

Субтитри:
мова: українська (Тільки до 12 серії - перекладено на Паляниці)
тип: програмні (м'які)
формат: *.srt

Субтитри:
мова: англійська
тип: програмні (м'які)
формат: *.srt
Info
General
Unique ID : 192607973734766392939243373591402541569 (0x90E6F248360987CC89A428A5FE0E7201)
Complete name : D:\American Horror Story Season 2\SE02EP01 - Welcome to Briarcliff.
Format :
Format version : Version 2
File size : 2.49 GiB
Duration : 46 min 2 s
Overall bit rate : 7 755 kb/s
Movie name : S2, Ep1 - Welcome to Briarcliff
Encoded date : UTC 2017-11-16 09:23:14
Writing application : v5.6.0 ('Kenya Kane') built on May 27 2012 16:44:04
Writing library : libebml v1.2.3 + v1.3.0

Video
ID : 1
Format : AVC
Format/Info : Advanced Video Codec
Format profile : [email protected]
Format settings, CABAC : Yes
Format settings, ReFrames : 9 frames
Codec ID : V_MPEG4/ISO/AVC
Duration : 46 min 2 s
Bit rate : 7 024 kb/s
Width : 1 278 pixels
Height : 720 pixels
Display aspect ratio : 16:9
Frame rate mode : Constant
Frame rate : 23.976 (24000/1001) FPS
Color space : YUV
Chroma subsampling : 4:2:0
Bit depth : 8 bits
Scan type : Progressive
Bits/(Pixel*Frame) : 0.318
Stream size : 2.26 GiB (91%)
Writing library : core 140 r2377 1ca7bb9
Encoding settings : cabac=1 / ref=9 / deblock=1:-3:-3 / analyse=0x3:0x133 / me=tesa / subme=11 / psy=1 / psy_rd=1.10:0.00 / mixed_ref=1 / me_range=16 / chroma_me=1 / trellis=2 / 8x8dct=1 / cqm=0 / deadzone=21,11 / fast_pskip=0 / chroma_qp_offset=-2 / threads=12 / lookahead_threads=2 / sliced_threads=0 / nr=0 / decimate=1 / interlaced=0 / bluray_compat=0 / constrained_intra=0 / bframes=7 / b_pyramid=2 / b_adapt=2 / b_bias=0 / direct=3 / weightb=1 / open_gop=0 / weightp=2 / keyint=250 / keyint_min=23 / scenecut=40 / intra_refresh=0 / rc=crf / mbtree=0 / crf=17.2 / qcomp=0.70 / qpmin=0 / qpmax=69 / qpstep=4 / ip_ratio=1.40 / pb_ratio=1.30 / aq=1:0.85
Language : English
Default : Yes
Forced : No
Color range : Limited
Matrix coefficients : BT.709

Audio #1
ID : 2
Format : AC-3
Format/Info : Audio Coding 3
Format settings, Endianness : Big
Codec ID : A_AC3
Duration : 46 min 2 s
Bit rate mode : Constant
Bit rate : 192 kb/s
Channel(s) : 2 channels
Channel positions : Front: L R
Sampling rate : 48.0 kHz
Frame rate : 31.250 FPS (1536 spf)
Bit depth : 16 bits
Compression mode : Lossy
Stream size : 63.2 MiB (2%)
Language : Ukrainian
Service kind : Complete Main
Default : Yes
Forced : No

Audio #2
ID : 3
Format : AC-3
Format/Info : Audio Coding 3
Format settings, Endianness : Big
Codec ID : A_AC3
Duration : 46 min 2 s
Bit rate mode : Constant
Bit rate : 384 kb/s
Channel(s) : 6 channels
Channel positions : Front: L C R, Side: L R, LFE
Sampling rate : 48.0 kHz
Frame rate : 31.250 FPS (1536 spf)
Bit depth : 16 bits
Compression mode : Lossy
Stream size : 126 MiB (5%)
Language : English
Service kind : Complete Main
Default : No
Forced : No

Text
ID : 4
Format : UTF-8
Codec ID : S_TEXT/UTF8
Codec ID/Info : UTF-8 Plain Text
Language : English
Default : No
Forced : No

Menu
00:00:00.000 : en:00:00:00.000
00:05:07.641 : en:00:05:07.641
00:11:31.399 : en:00:11:31.399
00:18:08.170 : en:00:18:08.170
00:20:21.679 : en:00:20:21.679
00:24:06.779 : en:00:24:06.779
00:25:56.263 : en:00:25:56.263
00:29:51.248 : en:00:29:51.248
00:31:15.457 : en:00:31:15.457
00:37:49.184 : en:00:37:49.184
00:39:27.073 : en:00:39:27.073
00:43:05.666 : en:00:43:05.666
Скріншоти



Джерело: &
Подяки: Пану ninenine за синхронізацію та пану zed за постер.
Особиста оцінка: 9 - мій улюблений сезон Американської історії жаху.



Срібний реліз (на рейтинг впливає 50% завантаженого)
 Трекер:    Зареєстрований   

Завантажити / скачати серіал українською



відео для новачків



 Зареєстрований:   2017-11-18 19:42
 Розмір:   30.97 GB 
 Оцінка серіалу:   9.6/10 (Голосів: 12)
   
don pedro 
Попереджень: 1
Попереджень: 1 


З нами з: 29.06.11
Востаннє: 25.11.20
Повідомлень: 18165

2017-11-16 21:25  
Один з кращих сезонів. Анна Франк рве усіхHappy
bot 
робот


З нами з: 30.09.07
Востаннє: 26.05.05
Повідомлень: 26355

2017-11-18 19:41  
Тему перенесено з Анонси релізів до форуму Серіали в HD


Петров Микола

igor911 
Модератор відео


З нами з: 18.01.08
Востаннє: 24.11.20
Повідомлень: 15080

2017-11-18 21:00  
Золото на тиждень для заохочення підтримки.
vkrav4uk 
Свій


З нами з: 03.03.12
Востаннє: 22.11.20
Повідомлень: 72

2017-11-19 21:00  
Раджу! Найкращий сезон цього серіялу =)
vkrav4uk 
Свій


З нами з: 03.03.12
Востаннє: 22.11.20
Повідомлень: 72

2017-11-23 18:51  
12 серія без української доріжки =(
Anonymous 







2017-11-23 19:39  
vkrav4uk написано:
12 серія без української доріжки =(

Тет її не транслював, тож там лише субтитри.

casper101 
VIP


З нами з: 03.12.09
Востаннє: 21.11.20
Повідомлень: 451

2018-09-30 08:52  
чи буде третій сезон на толоці
Anonymous 







2018-09-30 09:07  
casper101 написано:
чи буде третій сезон на толоці

Та де ж його взяти, якщо його не озвучували українською?

dadabar 
Відео Гуртом - запис з ТБ
Відео Гуртом - запис з ТБ


З нами з: 07.12.08
Востаннє: 23.09.20
Повідомлень: 91

2019-12-24 08:30  
Шановне панство, хто вже скачав - будь ласка, роздайте!
Ваш часовий пояс: GMT + 2 Години

Нова тема   Відповісти