Посіпаки-газонострижаки / Mower Minions (2016)

Нові коментарі

Нова тема   Відповісти
Автор Повідомлення
Anonymous 







2017-11-16 10:55  
Посіпаки-газонострижаки / Mower Minions (2016)

Посіпаки-газонострижаки / Mower Minions (2016)


Жанр: мультфільм, короткометражний, комедія, сімейний
Країна: США



Кінокомпанія: Illumination Entertainment
Режисер: Бруно Шоффард / Bruno Chauffard, Гленн МакКой / Glenn McCoy
Актори: П'єр Коффін / Pierre Coffin, Джоді Гелб / Jody Gelb, Дейв Розенбаум / Dave Rosenbaum

Сюжет:
Посіпаки хочуть купити блендер, щоб робити банановий сік. У скарбничці грошей на покупку не вистачає, і вони вирішують заробити необхідну суму ...


Тривалість: 00:04:12
Якість: [Hurtom]
Відео:
кодек:
розмір кадру: 720x384
бітрейт: 1898 кб/с

Аудіо #1:
мова: українська
переклад: професійний дубльований | студія LeDoyen
кодек: 5.1
бітрейт: 448 кб/с
Info
Код:
General
Complete name               : Mower Minions (2016) [Ukr] [Hurtom].avi
Format                      : AVI
Format/Info                 : Audio Video Interleave
File size                   : 70.8 MiB
Duration                    : 4 min 12 s
Overall bit rate            : 2 356 kb/s
Movie name                  : Посіпаки-газонострижаки / Mower Minions (2016) [Ukr] [Hurtom]
Genre                       : мультфільм, короткометражний, комедія, сімейний
Writing application         : VirtualDubModUkr 1.5.10.2 (build 2542/release)
Writing library             : VirtualDubMod build 2542/release
Comment                     : https://toloka.to/t85253

Video
ID                          : 0
Format                      : MPEG-4 Visual
Format profile              : Advanced [email protected]
Format settings             : BVOP1
Format settings, BVOP       : 1
Format settings, QPel       : No
Format settings, GMC        : No warppoints
Format settings, Matrix     : Default (MPEG)
Codec ID                    :
Codec ID/Hint               :
Duration                    : 4 min 12 s
Bit rate                    : 1 898 kb/s
Width                       : 720 pixels
Height                      : 384 pixels
Display aspect ratio        : 1.85:1
Frame rate                  : 23.976 (24000/1001) FPS
Color space                 : YUV
Chroma subsampling          : 4:2:0
Bit depth                   : 8 bits
Scan type                   : Progressive
Compression mode            : Lossy
Bits/(Pixel*Frame)          : 0.286
Stream size                 : 57.1 MiB (81%)
Writing library             : 67

Audio
ID                          : 1
Format                      : AC-3
Format/Info                 : Audio Coding 3
Codec ID                    : 2000
Duration                    : 4 min 12 s
Bit rate mode               : Constant
Bit rate                    : 448 kb/s
Channel(s)                  : 6 channels
Channel positions           : Front: L C R, Side: L R, LFE
Sampling rate               : 48.0 kHz
Frame rate                  : 31.250 FPS (1536 SPF)
Bit depth                   : 16 bits
Compression mode            : Lossy
Stream size                 : 13.5 MiB (19%)
Alignment                   : Split accross interleaves
Interleave, duration        : 42  ms (1.00 video frame)
Interleave, preload duratio : 500  ms
Title                       : Ukr DUB [Blu-Ray]
Service kind                : Complete Main


Джерело:



 Трекер:    Зареєстрований   

Завантажити / скачати фільм українською



відео для новачків



 Зареєстрований:   2017-11-16 11:05
 Розмір:   71 MB 
 Оцінка фільму:   7.1/10 (Голосів: 33)
   
eXteSy- 
VIP


З нами з: 06.04.09
Востаннє: 30.11.20
Повідомлень: 2215

2017-12-17 21:15  
Весела замальовка. Звісно, нічого особливого з таким хронометражем не варто очікувати, але хороший настрій забезпечує.
7/10

Ваш часовий пояс: GMT + 2 Години

Нова тема   Відповісти