Посіпаки-газонострижаки / Mower Minions (2016) 720p Ukr/Eng | Sub Eng

Нові коментарі

Нова тема   Відповісти
Автор Повідомлення
Anonymous 







2017-11-16 09:54  
Посіпаки-газонострижаки / Mower Minions (2016) 720p Ukr/Eng | Sub Eng

Посіпаки-газонострижаки / Mower Minions (2016) 720p Ukr/Eng | Sub Eng


Жанр: мультфільм, короткометражний, комедія, сімейний
Країна: США



Кінокомпанія: Illumination Entertainment
Режисер: Бруно Шоффард / Bruno Chauffard, Гленн МакКой / Glenn McCoy
Актори: П'єр Коффін / Pierre Coffin, Джоді Гелб / Jody Gelb, Дейв Розенбаум / Dave Rosenbaum

Сюжет:
Посіпаки хочуть купити блендер, щоб робити банановий сік. У скарбничці грошей на покупку не вистачає, і вони вирішують заробити необхідну суму ...


Тривалість: 00:04:12
Якість: 720p
Відео:
кодек:
розмір кадру: 1280 x 692
бітрейт: 4293 кб/с

Аудіо #1:
мова: українська
переклад: професійний дубльований | студія LeDoyen
кодек: 5.1
бітрейт: 640 кб/с

Аудіо #2:
мова: англійська
переклад: оригінал
кодек: 5.1
бітрейт: 448 кб/с

Субтитри #1:
мова: українська (форсовані)
тип: програмні (м'які)
формат: *.srt

Субтитри #2:
мова: англійська
тип: програмні (м'які)
формат: *.srt
Info
Код:
Complete name               : Mower Minions (2016) [Ukr,Eng sub.Eng] 720p [Hurtom].
Format                      :
Format version              : Version 4 / Version 2
File size                   : 162 MiB
Duration                    : 4 min 12 s
Overall bit rate            : 5 388 kb/s
Movie name                  : Посіпаки-газонострижаки / Mower Minions (2016) [Ukr,Eng sub.Eng] 720p [Hurtom]
Released date               : 2016
Writing application         : v17.0.0 ('Be Ur Friend') 64-bit
Writing library             : libebml v1.3.5 + v1.4.8
Cover                       : Yes
Comment                     : http://www.imdb.com/title/tt5873098/
Attachments                 : cover.jpg
ARTIST                      : П'єр Коффін / Pierre Coffin, Джоді Гелб / Jody Gelb, Дейв Розенбаум / Dave Rosenbaum
DIRECTOR                    : Бруно Шоффард / Bruno Chauffard, Гленн МакКой / Glenn McCoy
GENRE                       : мультфільм, короткометражний, комедія, сімейний
SYNOPSIS                    : Посіпаки хочуть купити блендер, щоб робити банановий сік. У скарбничці грошей на покупку не вистачає, і вони вирішують заробити необхідну суму...
Url                         : https://toloka.to/t85251

Video
ID                          : 1
Format                      : AVC
Format/Info                 : Advanced Video Codec
Format profile              : [email protected]
Format settings             : CABAC / 9 Ref Frames
Format settings, CABAC      : Yes
Format settings, ReFrames   : 9 frames
Codec ID                    : V_MPEG4/ISO/AVC
Duration                    : 4 min 12 s
Bit rate                    : 4 293 kb/s
Width                       : 1 280 pixels
Height                      : 692 pixels
Display aspect ratio        : 1.85:1
Frame rate mode             : Constant
Frame rate                  : 23.976 (24000/1001) FPS
Color space                 : YUV
Chroma subsampling          : 4:2:0
Bit depth                   : 8 bits
Scan type                   : Progressive
Bits/(Pixel*Frame)          : 0.202
Stream size                 : 129 MiB (80%)
Title                       : Посіпаки-газонострижаки / Mower Minions (2016) 720p [Rutracker, -Azureus-]
Writing library             : core 152 r2851kMod ba24899
Encoding settings           : cabac=1 / ref=9 / deblock=1:-2:-1 / analyse=0x3:0x133 / me=umh / subme=11 / psy=1 / fade_compensate=0.00 / psy_rd=1.00:0.05 / mixed_ref=1 / me_range=32 / chroma_me=1 / trellis=2 / 8x8dct=1 / cqm=0 / deadzone=21,11 / fast_pskip=0 / chroma_qp_offset=-3 / threads=6 / lookahead_threads=1 / sliced_threads=0 / nr=0 / decimate=1 / interlaced=0 / bluray_compat=0 / constrained_intra=0 / bframes=16 / b_pyramid=2 / b_adapt=2 / b_bias=0 / direct=3 / weightb=1 / open_gop=0 / weightp=2 / keyint=250 / keyint_min=23 / scenecut=40 / intra_refresh=0 / rc_lookahead=70 / rc=crf / mbtree=0 / crf=18.0000 / qcomp=0.60 / qpmin=0 / qpmax=69 / qpstep=4 / vbv_maxrate=50000 / vbv_bufsize=62500 / crf_max=0.0 / nal_hrd=none / filler=0 / ip_ratio=1.40 / pb_ratio=1.30 / aq=3:0.80
Language                    : English
Default                     : Yes
Forced                      : No
Color range                 : Limited
Color primaries             : BT.709
Transfer characteristics    : BT.709
Matrix coefficients         : BT.709

Audio #1
ID                          : 2
Format                      : AC-3
Format/Info                 : Audio Coding 3
Codec ID                    : A_AC3
Duration                    : 4 min 12 s
Bit rate mode               : Constant
Bit rate                    : 640 kb/s
Channel(s)                  : 6 channels
Channel positions           : Front: L C R, Side: L R, LFE
Sampling rate               : 48.0 kHz
Frame rate                  : 31.250 FPS (1536 SPF)
Bit depth                   : 16 bits
Compression mode            : Lossy
Stream size                 : 19.2 MiB (12%)
Title                       : UKR
Language                    : Ukrainian
Service kind                : Complete Main
Default                     : Yes
Forced                      : Yes

Audio #2
ID                          : 3
Format                      : AC-3
Format/Info                 : Audio Coding 3
Codec ID                    : A_AC3
Duration                    : 4 min 12 s
Bit rate mode               : Constant
Bit rate                    : 448 kb/s
Channel(s)                  : 6 channels
Channel positions           : Front: L C R, Side: L R, LFE
Sampling rate               : 48.0 kHz
Frame rate                  : 31.250 FPS (1536 SPF)
Bit depth                   : 16 bits
Compression mode            : Lossy
Stream size                 : 13.5 MiB (8%)
Title                       : ENG
Language                    : English
Service kind                : Complete Main
Default                     : No
Forced                      : No

Text #1
ID                          : 4
Format                      : UTF-8
Codec ID                    : S_TEXT/UTF8
Codec ID/Info               : UTF-8 Plain Text
Duration                    : 4 min 0 s
Bit rate                    : 13 b/s
Count of elements           : 13
Stream size                 : 412 Bytes (0%)
Title                       : Ukr Forced
Language                    : Ukrainian
Default                     : Yes
Forced                      : Yes

Text #2
ID                          : 5
Format                      : UTF-8
Codec ID                    : S_TEXT/UTF8
Codec ID/Info               : UTF-8 Plain Text
Duration                    : 3 min 59 s
Bit rate                    : 61 b/s
Count of elements           : 96
Stream size                 : 1.80 KiB (0%)
Title                       : Eng Full
Language                    : English
Default                     : No
Forced                      : No


Джерело: &



 Трекер:    Зареєстрований   

Завантажити / скачати фільм українською



відео для новачків



 Зареєстрований:   2017-11-16 10:15
 Розмір:   162 MB 
 Оцінка фільму:   6/10 (Голосів: 24)
   
Ваш часовий пояс: GMT + 2 Години

Нова тема   Відповісти