Ніч у музеї / Night at the Museum (2006) 1080р 2xUkr/Eng | Sub Ukr/Eng

Нові коментарі

Нова тема   Відповісти
Автор Повідомлення
Argentum 
Свій


З нами з: 25.09.11
Востаннє: 24.11.17
Повідомлень: 91

2017-11-14 16:11  
Ніч у музеї / Night at the Museum (2006) 1080р 2xUkr/Eng | Sub Ukr/Eng

Ніч у музеї / Night at the Museum (2006) 1080р 2xUkr/Eng | Sub Ukr/Eng


Жанр: фентезі, пригодницький, комедія
Країна: США



Кінокомпанія: 1492 Pictures, Ingenious Film Partners
Режисер: Шон Леві
Актори: Бен Стіллер, Овен Вілсон, Карла Гуджино, Робін Вільямс, Дік Ван Дайк, Мікі Руні, Білл Коббс, Джейк Черрі

Сюжет:
За загальноприйнятими критеріями Леррі Дейлі - типовий невдаха. Аби зберегти залишки батьківського авторитету в очах маленького сина, він улаштовується на непрестижну роботу нічного сторожа до музею природознавства. Та, виявляється, у цієї посади є додаткове навантаження, не передбачене контрактом: кожну ніч всі експонати музею - опудала звірів, скелети доісторичних тварин, фігурки людей і навіть восковий Теодор Рузвельт оживають і починають поводитися як мінімум зухвало, а часом навіть агресивно. Виною всьому є автентична скрижаль з Давнього Єгипту, що має очевидні магічні властивості. Відтепер для Леррі питання честі дотриматися найважливішого принципу роботи наглядача музею: нікого не впускати і, головне, нікого не випускати!


Тривалість: 01:48:35
Якість: 1080p
Відео:
кодек:
розмір кадру: 1920 х 1036
бітрейт: 12500 кб/с

Аудіо # 1:
мова: українська
переклад: професійний дубльований
кодек: 5.1
бітрейт: 448 кб/с

Аудіо # 2:
мова: українська
переклад: професійний дубльований
кодек: 2.0
бітрейт: 192 кб/с

Аудіо # 3:
мова: англійська
переклад: оригінал
кодек: 5.1
бітрейт: 640 кб/с

Субтитри 1-2: (форсовані, повні)
мова: українська
тип: програмні (м'які)
формат: *.srt

Субтитри 3:
мова: англійська
тип: програмні (м'які)
формат: *.srt
Info
General
Unique ID : 51260533986884040846384952917006453329 (0x26906B73E35A08E8E6849B762AE38A51)
Complete name : /home/jacks/Videos/My/Night at the Museum/Night at the Museum (2006) [Ukr,Eng] 1080p [Hurtom].
Format :
Format version : Version 4 / Version 2
File size : 10.5 GiB
Duration : 1 h 48 min
Overall bit rate : 13.8 Mb/s
Movie name : Release for HURTOM.COM
Encoded date : UTC 2017-11-14 12:58:24
Writing application : mkvmerge v17.0.0 ('Be Ur Friend') 64-bit
Writing library : libebml v1.3.5 + libmatroska v1.4.8
Attachments : wWC6yYJNkLfnqO9XbsWC99QBaJ4.jpg

Video
ID : 1
Format : AVC
Format/Info : Advanced Video Codec
Format profile : [email protected]
Format settings : CABAC / 4 Ref Frames
Format settings, CABAC : Yes
Format settings, ReFrames : 4 frames
Codec ID : V_MPEG4/ISO/AVC
Duration : 1 h 48 min
Bit rate : 12.5 Mb/s
Width : 1 920 pixels
Height : 1 036 pixels
Display aspect ratio : 1.85:1
Frame rate mode : Constant
Frame rate : 23.976 (24000/1001) FPS
Color space : YUV
Chroma subsampling : 4:2:0
Bit depth : 8 bits
Scan type : Progressive
Bits/(Pixel*Frame) : 0.262
Stream size : 9.48 GiB (91%)
Title : AVC @ 12500 Kbps
Writing library : core 148 r2795 aaa9aa8
Encoding settings : cabac=1 / ref=4 / deblock=1:-3:-3 / analyse=0x3:0x133 / me=umh / subme=11 / psy=1 / psy_rd=1,00:10,00 / mixed_ref=1 / me_range=32 / chroma_me=1 / trellis=2 / 8x8dct=1 / cqm=0 / deadzone=21,11 / fast_pskip=0 / chroma_qp_offset=-4 / threads=12 / lookahead_threads=2 / sliced_threads=0 / nr=0 / decimate=1 / interlaced=0 / bluray_compat=0 / constrained_intra=0 / bframes=8 / b_pyramid=2 / b_adapt=2 / b_bias=0 / direct=3 / weightb=1 / open_gop=0 / weightp=2 / keyint=240 / keyint_min=24 / scenecut=40 / intra_refresh=0 / rc_lookahead=60 / rc=2pass / mbtree=1 / bitrate=12500 / ratetol=1,0 / qcomp=0,60 / qpmin=0 / qpmax=69 / qpstep=4 / cplxblur=20,0 / qblur=0,5 / vbv_maxrate=62500 / vbv_bufsize=78125 / nal_hrd=none / filler=0 / ip_ratio=1,40 / aq=1:1,00
Language : English
Default : Yes
Forced : No
Color range : Limited
Color primaries : BT.709
Transfer characteristics : BT.709
Matrix coefficients : BT.709

Audio #1
ID : 2
Format : AC-3
Format/Info : Audio Coding 3
Codec ID : A_AC3
Duration : 1 h 48 min
Bit rate mode : Constant
Bit rate : 448 kb/s
Channel(s) : 6 channels
Channel positions : Front: L C R, Side: L R, LFE
Sampling rate : 48.0 kHz
Frame rate : 31.250 FPS (1536 SPF)
Bit depth : 16 bits
Compression mode : Lossy
Stream size : 348 MiB (3%)
Title : 5.1 @ 448 Kbps
Language : Ukrainian
Service kind : Complete Main
Default : Yes
Forced : Yes

Audio #2
ID : 3
Format : AC-3
Format/Info : Audio Coding 3
Codec ID : A_AC3
Duration : 1 h 48 min
Bit rate mode : Constant
Bit rate : 192 kb/s
Channel(s) : 2 channels
Channel positions : Front: L R
Sampling rate : 48.0 kHz
Frame rate : 31.250 FPS (1536 SPF)
Bit depth : 16 bits
Compression mode : Lossy
Stream size : 149 MiB (1%)
Title : 2.0 @ 192 Kbps # 1+1
Language : Ukrainian
Service kind : Complete Main
Default : No
Forced : No

Audio #3
ID : 4
Format : AC-3
Format/Info : Audio Coding 3
Codec ID : A_AC3
Duration : 1 h 48 min
Bit rate mode : Constant
Bit rate : 640 kb/s
Channel(s) : 6 channels
Channel positions : Front: L C R, Side: L R, LFE
Sampling rate : 48.0 kHz
Frame rate : 31.250 FPS (1536 SPF)
Bit depth : 16 bits
Compression mode : Lossy
Stream size : 497 MiB (5%)
Title : 5.1 @ 640 Kbps
Language : English
Service kind : Complete Main
Default : No
Forced : No

Text #1
ID : 5
Format : UTF-8
Codec ID : S_TEXT/UTF8
Codec ID/Info : UTF-8 Plain Text
Duration : 1 h 39 min
Bit rate : 0 b/s
Count of elements : 11
Stream size : 322 Bytes (0%)
Title : Forced
Language : Ukrainian
Default : Yes
Forced : Yes

Text #2
ID : 6
Format : UTF-8
Codec ID : S_TEXT/UTF8
Codec ID/Info : UTF-8 Plain Text
Duration : 1 h 41 min
Bit rate : 74 b/s
Count of elements : 1235
Stream size : 55.6 KiB (0%)
Title : Full
Language : Ukrainian
Default : No
Forced : No

Text #3
ID : 7
Format : UTF-8
Codec ID : S_TEXT/UTF8
Codec ID/Info : UTF-8 Plain Text
Duration : 1 h 41 min
Bit rate : 59 b/s
Count of elements : 1215
Stream size : 43.9 KiB (0%)
Language : English
Default : No
Forced : No
Скріншоти




За виготовлення постеру подяка пану SHKVAL

Джерело: &
Особиста оцінка: 8 - мені сподобалося



 Трекер:    Зареєстрований   

Завантажити / скачати фільм українською



відео для новачків



 Зареєстрований:   2017-11-14 16:11
 Розмір:   10.45 GB 
 Оцінка фільму:   9.9/10 (Голосів: 7)
   
ua2004 
Відео Гуртом - фільмокрай
Відео Гуртом - фільмокрай


З нами з: 31.01.08
Востаннє: 23.11.17
Повідомлень: 3170

2017-11-14 16:46  
Навіщо 1+1 дублює вже дубльовані фільми? Гроші на вітер?
igor911 
Відео Гуртом
Відео Гуртом


З нами з: 18.01.08
Востаннє: 24.11.17
Повідомлень: 8289

2017-11-14 17:07  
ua2004 написано:
Гроші на вітер?
мабуть зробити свій було дешевше. А ось на другу частину вони купили кінотеатральний дубляж https://toloka.to/t35326#595909
ua2004 
Відео Гуртом - фільмокрай
Відео Гуртом - фільмокрай


З нами з: 31.01.08
Востаннє: 23.11.17
Повідомлень: 3170

2017-11-15 23:27  
igor911 написано:
мабуть зробити свій було дешевше. А ось на другу частину вони купили кінотеатральний дубляж

Отже, дубляж 2-ї частини дешевший, ніж 1-ї? Цікаво, з яких міркувань.

Ваш часовий пояс: GMT + 2 Години

Нова тема   Відповісти