Ґанґстердам / Gangsterdam (2017) 720p Ukr/Fre

Нові коментарі

Нова тема   Відповісти
Автор Повідомлення
Anonymous 







2017-11-13 22:40  
Ґанґстердам / Gangsterdam (2017) 720p Ukr/Fre

Ґанґстердам / Gangsterdam (2017) 720p Ukr/Fre


Жанр: комедія
Країна: Франція, Нідерланди



Кінокомпанія: Les Productions du Trésor, StudioCanal, France 2 Cinéma, Lunanime B.V., Canal+, Ciné+, France Télévisions, M6, Netherlands Film Production Incentive
Режисер: Ромейн Леві / Romain Lévy
Актори: Кев Адамс / Kev Adams, Менон Азем / Manon Azem, Коме Левін / Côme Levin, Патрік Тімсі / Patrick Timsit, Рутґер Гауер / Rutger Hauer, Юбер Кунде / Hubert Koundé, Мона Валравенс / Mona Walravens, Алекс Гендрікс / Alex Hendrickx, Ідо Моссері / Ido Mosseri, Маню Пайє / Manu Payet та інші

Сюжет:
Рубена важко назвати крутим та мужнім. Учні молодших класів кепкують з нього, а дівчата навіть не дивляться в його сторону. Коли у класі з’являється Нора, Рубен намагається познайомитись, але і тут все марно. Згодом виявляється, що Нора перевозить наркотики із Амстердаму. Сором’язливий та не впевнений в собі хлопець вирішує, що тільки допомога Норі у скоєнні злочину дасть ключ до серця дівчини. По приїзді в Амстердам все йде легко і весело: друзі знаходять продавця, беруть товар, вже їдуть додому і… все йде шкереберть, коли шляхи Нори, Рубена та місцевої мафії перетинаються.
Офіційний український трейлер:


Вікова категорія: 16+
Тривалість: 01:38:01
Якість: 720p
Відео:
кодек:
розмір кадру: 1280 х 536
бітрейт: 4875 кб/с

Аудіо # 1:
мова: українська
переклад: професійний дубльований | студія Tretyakoff production
кодек: 2.0
бітрейт: 192 кб/с

Аудіо # 2:
мова: французька
переклад: оригінал
кодек: 5.1
бітрейт: 448 кб/с

Субтитри :
мова: французька (лише на репліки англійською)
тип: програмні (м'які)
формат: *.srt

Збережено оригінальні розділи, як на Blu-ray
Info
Код:
Complete name               : Gangsterdam (2017) [Ukr,Fre] 720p [Hurtom].
Format                      :
Format version              : Version 4 / Version 2
File size                   : 3.78 GiB
Duration                    : 1 h 38 min
Overall bit rate            : 5 515 kb/s
Movie name                  : Ґанґстердам / Gangsterdam (2017) [Ukr,Fre] 720p [Hurtom]
Released date               : 2017
Writing application         : mkvmerge v17.0.0 ('Be Ur Friend') 64-bit
Writing library             : libebml v1.3.5 + libmatroska v1.4.8
Cover                       : Yes
Comment                     : http://www.imdb.com/title/tt5976178/
Attachments                 : cover.jpg
ARTIST                      : Кев Адамс / Kev Adams, Менон Азем / Manon Azem, Коме Левін / Côme Levin, Патрік Тімсі / Patrick Timsit, Рутґер Гауер / Rutger Hauer, Юбер Кунде / Hubert Koundé, Мона Валравенс / Mona Walravens, Алекс Гендрікс / Alex Hendrickx, Ідо Моссері / Ido Mosseri, Маню Пайє / Manu Payet та інші
DIRECTOR                    : Ромейн Леві / Romain Lévy
GENRE                       : комедія
SYNOPSIS                    : Рубена важко назвати крутим та мужнім. Учні молодших класів кепкують з нього, а дівчата навіть не дивляться в його сторону. Коли у класі з’являється Нора, Рубен намагається познайомитись, але і тут все марно. Згодом виявляється, що Нора перевозить наркотики із Амстердаму. Сором’язливий та не впевнений в собі хлопець вирішує, що тільки допомога Норі у скоєнні злочину дасть ключ до серця дівчини. По приїзді в Амстердам все йде легко і весело: друзі знаходять продавця, беруть товар, вже їдуть додому і… все йде шкереберть, коли шляхи Нори, Рубена та місцевої мафії перетинаються...
Url                         : https://toloka.to/t85215

Video
ID                          : 1
Format                      : AVC
Format/Info                 : Advanced Video Codec
Format profile              : [email protected]
Format settings             : CABAC / 5 Ref Frames
Format settings, CABAC      : Yes
Format settings, ReFrames   : 5 frames
Codec ID                    : V_MPEG4/ISO/AVC
Duration                    : 1 h 38 min
Bit rate                    : 4 875 kb/s
Width                       : 1 280 pixels
Height                      : 536 pixels
Display aspect ratio        : 2.40:1
Frame rate mode             : Constant
Frame rate                  : 23.976 (24000/1001) FPS
Color space                 : YUV
Chroma subsampling          : 4:2:0
Bit depth                   : 8 bits
Scan type                   : Progressive
Bits/(Pixel*Frame)          : 0.296
Stream size                 : 3.34 GiB (88%)
Title                       : Ґанґстердам / Gangsterdam (2017) 720p
Writing library             : core 152 r2851 ba24899
Encoding settings           : cabac=1 / ref=5 / deblock=1:0:0 / analyse=0x3:0x113 / me=umh / subme=8 / psy=1 / psy_rd=1.00:0.00 / mixed_ref=1 / me_range=16 / chroma_me=1 / trellis=1 / 8x8dct=1 / cqm=0 / deadzone=21,11 / fast_pskip=1 / chroma_qp_offset=-2 / threads=17 / lookahead_threads=2 / sliced_threads=0 / nr=0 / decimate=1 / interlaced=0 / bluray_compat=0 / constrained_intra=0 / bframes=3 / b_pyramid=2 / b_adapt=2 / b_bias=0 / direct=3 / weightb=1 / open_gop=0 / weightp=2 / keyint=240 / keyint_min=24 / scenecut=40 / intra_refresh=0 / rc_lookahead=50 / rc=2pass / mbtree=1 / bitrate=4875 / ratetol=1.0 / qcomp=0.60 / qpmin=0 / qpmax=69 / qpstep=4 / cplxblur=20.0 / qblur=0.5 / ip_ratio=1.40 / aq=1:1.00
Language                    : English
Default                     : Yes
Forced                      : No

Audio #1
ID                          : 2
Format                      : AC-3
Format/Info                 : Audio Coding 3
Codec ID                    : A_AC3
Duration                    : 1 h 38 min
Bit rate mode               : Constant
Bit rate                    : 192 kb/s
Channel(s)                  : 2 channels
Channel positions           : Front: L R
Sampling rate               : 48.0 kHz
Frame rate                  : 31.250 FPS (1536 SPF)
Bit depth                   : 16 bits
Compression mode            : Lossy
Stream size                 : 135 MiB (3%)
Title                       : Dub [Line] 2.0 192 Kbps [Hurtom-Covenant]
Language                    : Ukrainian
Service kind                : Complete Main
Default                     : Yes
Forced                      : Yes

Audio #2
ID                          : 3
Format                      : AC-3
Format/Info                 : Audio Coding 3
Codec ID                    : A_AC3
Duration                    : 1 h 38 min
Bit rate mode               : Constant
Bit rate                    : 448 kb/s
Channel(s)                  : 6 channels
Channel positions           : Front: L C R, Side: L R, LFE
Sampling rate               : 48.0 kHz
Frame rate                  : 31.250 FPS (1536 SPF)
Bit depth                   : 16 bits
Compression mode            : Lossy
Stream size                 : 314 MiB (8%)
Title                       : Original, 5.1 448 Kbps
Language                    : French
Service kind                : Complete Main
Default                     : No
Forced                      : No

Text
ID                          : 4
Format                      : UTF-8
Codec ID                    : S_TEXT/UTF8
Codec ID/Info               : UTF-8 Plain Text
Duration                    : 1 h 17 min
Bit rate                    : 16 b/s
Count of elements           : 373
Stream size                 : 9.47 KiB (0%)
Title                       : French Forced
Language                    : French
Default                     : No
Forced                      : No

Menu
00:00:00.000                : en:00:00:00.000
00:08:31.261                : en:00:08:31.261
00:16:24.901                : en:00:16:24.901
00:24:26.006                : en:00:24:26.006
00:34:57.220                : en:00:34:57.220
00:43:31.400                : en:00:43:31.400
00:52:38.364                : en:00:52:38.364
00:59:45.749                : en:00:59:45.749
01:07:54.737                : en:01:07:54.737
01:16:11.484                : en:01:16:11.484
01:24:30.983                : en:01:24:30.983
01:32:37.886                : en:01:32:37.886


Джерело: &
Подяка Covenant'у за українську доріжку.


 Трекер:    Зареєстрований   

Завантажити / скачати фільм українською



відео для новачків



 Зареєстрований:   2017-11-13 23:48
 Розмір:   3.78 GB 
 Оцінка фільму:   4.3/10 (Голосів: 23)
   
Інші релізи
   Ґанґстердам / Gangsterdam (2017) AVC Ukr/Fre 11FrYkT  66 / 1   1.45 GB   2017-11-14 13:51 
   Ґанґстердам / Gangsterdam (2017) 1080p Ukr/Fre Electroz  30 / 0   6.09 GB   2017-11-13 22:14 
   Ґанґстердам / Gangsterdam (2017) Ukr/Fra Covenant  98 / 1   1.5 GB   2017-11-13 21:12 
Cerguk 
Новенький


З нами з: 30.09.09
Востаннє: 22.11.17
Повідомлень: 11

2017-11-14 09:14  
Хтось вже ризикнув глянув цей шедевр ? Бо що рейтинг, що коменти на інших ресурсах - все явно не на користь фільма Happy
Mr.Destiny 
Свій


З нами з: 19.03.14
Востаннє: 22.11.17
Повідомлень: 53

2017-11-14 22:31  
Коли вже з'являться нові цікаві фільми?
demetrius52 
Свій


З нами з: 02.04.17
Востаннє: 24.11.17
Повідомлень: 80

2017-11-15 15:52  
фільм дубльовано студією Tretyakoff
Alex_Shumway 
Новенький


З нами з: 10.07.16
Востаннє: 23.11.17
Повідомлень: 18

2017-11-19 19:58  
Фоном, на разок - можна. Не очікуйте, і не розчаруєтесь)
Victor_Scythian 
Свій


З нами з: 06.01.17
Востаннє: 23.11.17
Повідомлень: 89

2017-11-22 18:29  
Рейтинг: 3.9.
Навіщо взагалі таке постити?

Ваш часовий пояс: GMT + 2 Години

Нова тема   Відповісти