Розширений всесвіт DC: Колекція фільмів / DCEU: Collection (2013-2017) AVC Ukr/Eng | Sub Ukr/Eng

Нові коментарі

Нова тема   Відповісти

Увійдіть, щоб проголосувати
Автор Повідомлення
zoomymba2012 
Поважний учасник


З нами з: 08.01.15
Востаннє: 21.11.17
Повідомлень: 167

2017-11-12 22:08  
Розширений всесвіт DC: Колекція фільмів / DCEU: Collection (2013-2017) AVC Ukr/Eng | Sub Ukr/Eng

Розширений всесвіт DC: Колекція фільмів / DCEU: Collection (2013-2017) AVC Ukr/Eng | Sub Ukr/Eng



Країна: США
Кінокомпанія: DC Films, RatPac Entertainment, Atlas Entertainment, Cruel & Unusual Films, Legendary Entertainment, Pearl Street Films
Сюжет:
Розширений всесвіт DC (англ. DC Extended Universe) — вигаданий всесвіт, серія супергеройських фільмів, заснована на коміксах компанії DC Comics і розроблена компанією Warner Bros. Всесвіт було створено шляхом з'єднання в загальну сюжетну лінію декількох фільмів з акторами і персонажами.


Тривалість: ~02:10:00
Якість: AVC
Людина зі сталі / Man of Steel (2013) AVC Ukr/Eng | sub Ukr/Eng
Людина зі сталі / Man of Steel (2013) AVC Ukr/Eng | sub Ukr/Eng

Розширений всесвіт DC: Колекція фільмів / DCEU: Collection (2013-2017) AVC Ukr/Eng | Sub Ukr/Eng


Жанр: екшн, пригодницький, фантастика
Країна: США, Канада, Велика Британія



Кінокомпанія: DC Entertainment, Legendary Pictures, Syncopy, Third Act Productions, Warner Bros. Pictures
Режисер: Зак Снайдер
Актори: Генрі Кавілл, Емі Адамс, Майкл Шеннон, Рассел Кроу, Даян Лейн, Кевін Костнер, Лоуренс Фішберн, Антьє Трає, Крістофер Мелоні, Гаррі Дж. Леннікс та інші

Сюжет:
Кларк Кент - молодий журналіст, який відчуває себе чужинцем через свою неймовірну силу. Відправлений багато років тому на Землю з куди більш розвиненої планети Криптон, він намагається усвідомити “Навіщо?”
Виховуваний у сім'ї названих батьків, Марти та Джонатана Кента, незабаром Кларк розуміє, що мати суперздібності — означає необхідність приймати дуже непрості рішення. Але саме в той момент, коли людству так необхідна стабільність, на світ здійснюється напад. Тепер Кларк стає героєм, відомим як Супермен, щоб допомогти відвести несподівану загрозу і захистити тих, кого він любить.


Тривалість: 02:23:02
Якість: AVC
Відео:
кодек:
розмір кадру: 1024 х 426
бітрейт: 2 800 кб/с

Аудіо # 1:
мова: українська
переклад: професійний дубльований
кодек: 5.1
бітрейт: 384 кб/с

Аудіо # 2:
мова: англійська
переклад: оригінал
кодек: 5.1
бітрейт: 448 кб/с

Джерело озвучення:


Субтитри:
мова: українська
тип: програмні (м'які)
формат: *.srt

Субтитри (Full, SDHC):
мова: англійська
тип: програмні (м'які)
формат: *.srt
Скріншоти





Info
Цитата:


General
Unique ID : 244483420702987749412428599559995231765 (0xB7EDCB49139CF977BF7298B416778E15)
Complete name : D:\DC Extended Universe Collection AVC [Ukr]\01. Man of Steel (2013) AVC [Ukr, Eng] [Hurtom].
Format :
Format version : Version 4 / Version 2
File size : 3.63 GiB
Duration : 2 h 23 min
Overall bit rate : 3 630 kb/s
Movie name : -=MediaClub-kaspr=-
Encoded date : UTC 2017-11-12 13:53:59
Writing application : mkvmerge v13.0.0 ('The Juggler') 64bit
Writing library : libebml v1.3.4 + libmatroska v1.4.5

Video
ID : 1
Format : AVC
Format/Info : Advanced Video Codec
Format profile : [email protected]
Format settings, CABAC : Yes
Format settings, ReFrames : 9 frames
Codec ID : V_MPEG4/ISO/AVC
Duration : 2 h 23 min
Bit rate : 2 800 kb/s
Width : 1 024 pixels
Height : 426 pixels
Display aspect ratio : 2.40:1
Frame rate mode : Constant
Frame rate : 23.976 (24000/1001) FPS
Color space : YUV
Chroma subsampling : 4:2:0
Bit depth : 8 bits
Scan type : Progressive
Bits/(Pixel*Frame) : 0.268
Stream size : 2.79 GiB (77%)
Writing library : core 130 r2273 b3065e6
Encoding settings : cabac=1 / ref=9 / deblock=1:-3:-3 / analyse=0x3:0x133 / me=umh / subme=11 / psy=1 / psy_rd=1.00:0.20 / mixed_ref=1 / me_range=48 / chroma_me=1 / trellis=2 / 8x8dct=1 / cqm=0 / deadzone=21,11 / fast_pskip=0 / chroma_qp_offset=-3 / threads=12 / lookahead_threads=3 / sliced_threads=0 / nr=0 / decimate=0 / interlaced=0 / bluray_compat=0 / constrained_intra=0 / bframes=10 / b_pyramid=2 / b_adapt=2 / b_bias=0 / direct=3 / weightb=1 / open_gop=0 / weightp=2 / keyint=240 / keyint_min=23 / scenecut=40 / intra_refresh=0 / rc=2pass / mbtree=0 / bitrate=2800 / ratetol=1.0 / qcomp=0.60 / qpmin=0 / qpmax=69 / qpstep=4 / cplxblur=20.0 / qblur=0.5 / ip_ratio=1.40 / pb_ratio=1.30 / aq=1:1.00
Language : English
Default : Yes
Forced : Yes

Audio #1
ID : 2
Format : AC-3
Format/Info : Audio Coding 3
Mode extension : CM (complete main)
Format settings, Endianness : Big
Codec ID : A_AC3
Duration : 2 h 23 min
Bit rate mode : Constant
Bit rate : 384 kb/s
Channel(s) : 6 channels
Channel positions : Front: L C R, Side: L R, LFE
Sampling rate : 48.0 kHz
Frame rate : 31.250 FPS (1536 spf)
Bit depth : 16 bits
Compression mode : Lossy
Stream size : 393 MiB (11%)
Title : 5.1; 384 kbps; Dub {Postmodern} [DVD]
Language : Ukrainian
Default : Yes
Forced : No

Audio #2
ID : 3
Format : AC-3
Format/Info : Audio Coding 3
Mode extension : CM (complete main)
Format settings, Endianness : Big
Codec ID : A_AC3
Duration : 2 h 23 min
Bit rate mode : Constant
Bit rate : 448 kb/s
Channel(s) : 6 channels
Channel positions : Front: L C R, Side: L R, LFE
Sampling rate : 48.0 kHz
Frame rate : 31.250 FPS (1536 spf)
Bit depth : 16 bits
Compression mode : Lossy
Stream size : 458 MiB (12%)
Title : 5.1; 448 kbps; original
Language : English
Default : No
Forced : No

Text #1
ID : 4
Format : UTF-8
Codec ID : S_TEXT/UTF8
Codec ID/Info : UTF-8 Plain Text
Duration : 2 h 22 min
Bit rate : 52 b/s
Count of elements : 1264
Stream size : 55.1 KiB (0%)
Title : full [DVD]
Language : Ukrainian
Default : No
Forced : No

Text #2
ID : 5
Format : UTF-8
Codec ID : S_TEXT/UTF8
Codec ID/Info : UTF-8 Plain Text
Duration : 2 h 22 min
Bit rate : 54 b/s
Count of elements : 1470
Stream size : 56.2 KiB (0%)
Title : SDH - Colored
Language : English
Default : No
Forced : No

Text #3
ID : 6
Format : UTF-8
Codec ID : S_TEXT/UTF8
Codec ID/Info : UTF-8 Plain Text
Duration : 2 h 11 min
Bit rate : 41 b/s
Count of elements : 1292
Stream size : 40.0 KiB (0%)
Title : Full
Language : English
Default : No
Forced : No

Menu
00:00:00.000 : en:00:00:00.000
00:11:16.968 : en:00:11:16.968
00:20:01.450 : en:00:20:01.450
00:30:09.474 : en:00:30:09.474
00:39:21.609 : en:00:39:21.609
00:48:57.643 : en:00:48:57.643
00:59:03.415 : en:00:59:03.415
01:08:57.884 : en:01:08:57.884
01:17:35.109 : en:01:17:35.109
01:28:36.186 : en:01:28:36.186
01:40:47.792 : en:01:40:47.792
01:50:55.858 : en:01:50:55.858
02:00:53.580 : en:02:00:53.580
02:10:13.556 : en:02:10:13.556
02:12:49.920 : en:02:12:49.920

Джерело: &
Особиста оцінка: 9 - давно не бачив настільки якісне кіно
Бетмен проти Супермена: На зорі справедливості (Розширена IMAX версія) / Batman v Superman: Dawn of Justice (Ultimate IMAX Edition) (2016) AVC Ukr/Eng | Sub Ukr/Eng
Бетмен проти Супермена: На зорі справедливості [Розширена IMAX версія] / Batman v Superman: Dawn of Justice [Ultimate IMAX Edition] (2016) AVC Ukr/Eng | Sub Ukr/Eng

Розширений всесвіт DC: Колекція фільмів / DCEU: Collection (2013-2017) AVC Ukr/Eng | Sub Ukr/Eng


Жанр: пригоди, фентезі, дія
Країна: США



Кінокомпанія: Warner Bros., Atlas Entertainment, Cruel & Unusual Films
Режисер: Зак Снайдер
Актори: Генрі Кавілл, Бен Аффлек, Емі Адамс, Джейсон Момоа, Джессі Айзенберґ, Ґал Ґадот, Джеффрі Дін Морґан, Даян Лейн, Езра Міллер, Джеремі Айронс

Сюжет:
Після руйнівної боротьби проти генерала Зода, місто Метрополіс було зруйноване вщент. Супермен став найбільш суперечливою персоною в світі. Поки одна частина людства вважає його символом надії, все більше людей схиляється до думки про те, що ця надлюдина несе загрозу для Землі. Брюс Вейн стурбований небезпекою, яку Супермен представляє для суспільства. Він невпевнений у збереженні миру у світі, де така сила залишається безконтрольною. Вейн одягає маску і костюм Бетмена, щоб виправити несправедливість надлюдини. Поки протистояння двох героїв набирає сили, на горизонті з'являється нова загроза. Людина, яка має більше влади, ніж Супермен і Бетмен, готова знищити все, за що вони боролися.


Тривалість: 03:02:33
Якість: AVC
Відео:
кодек:
розмір кадру: 1024 х 576
бітрейт: 2 272 кб/с

Аудіо # 1:
мова: українська
переклад: професійний дубльований з вставками оригіналу
кодек: 2.0
бітрейт: 192 кб/с

Аудіо # 2:
мова: англійська
переклад: оригінал
кодек: 5.1
бітрейт: 448 кб/с

Субтитри (Forced, Full):
мова: українська
тип: програмні (м'які)
формат: *.srt

Субтитри (Full, SDH):
мова: англійська
тип: програмні (м'які)
формат: *.srt
Скріншоти







Info
Цитата:


General
Unique ID : 181764245963256000148271890789062974206 (0x88BE8539B7DD49399939BF2D299C9AFE)
Complete name : D:\DC Extended Universe Collection AVC [Ukr]\02. Batman v Superman [Ultimate IMAX Edition] (2016) AVC [Ukr, Eng] [Hurtom].
Format :
Format version : Version 4 / Version 2
File size : 3.72 GiB
Duration : 3 h 2 min
Overall bit rate : 2 915 kb/s
Movie name : Бэтмен против Супермена: На заре справедливости (Расширенная версия) / Batman v Superman: Dawn of Justice [Ultimate Edition] (2016) [IMAX]
Encoded date : UTC 2017-11-12 13:45:57
Writing application : mkvmerge v13.0.0 ('The Juggler') 64bit
Writing library : libebml v1.3.4 + libmatroska v1.4.5
Cover : Yes
Attachments : cover.png / small_cover.png / cover

Video
ID : 1
Format : AVC
Format/Info : Advanced Video Codec
Format profile : [email protected]
Format settings, CABAC : Yes
Format settings, ReFrames : 8 frames
Codec ID : V_MPEG4/ISO/AVC
Duration : 3 h 2 min
Bit rate : 2 272 kb/s
Width : 1 024 pixels
Height : 576 pixels
Display aspect ratio : 16:9
Frame rate mode : Constant
Frame rate : 23.976 (24000/1001) FPS
Color space : YUV
Chroma subsampling : 4:2:0
Bit depth : 8 bits
Scan type : Progressive
Bits/(Pixel*Frame) : 0.161
Stream size : 2.90 GiB (78%)
Writing library : core 146 r2538 121396c
Encoding settings : cabac=1 / ref=8 / deblock=1:0:0 / analyse=0x3:0x113 / me=umh / subme=10 / psy=1 / psy_rd=1.00:0.00 / mixed_ref=1 / me_range=32 / chroma_me=1 / trellis=2 / 8x8dct=1 / cqm=0 / deadzone=21,11 / fast_pskip=0 / chroma_qp_offset=-2 / threads=6 / lookahead_threads=1 / sliced_threads=0 / nr=0 / decimate=1 / interlaced=0 / bluray_compat=0 / constrained_intra=0 / bframes=9 / b_pyramid=2 / b_adapt=2 / b_bias=0 / direct=3 / weightb=1 / open_gop=0 / weightp=2 / keyint=250 / keyint_min=23 / scenecut=40 / intra_refresh=0 / rc_lookahead=50 / rc=2pass / mbtree=1 / bitrate=2272 / ratetol=1.0 / qcomp=0.60 / qpmin=0 / qpmax=69 / qpstep=4 / cplxblur=20.0 / qblur=0.5 / vbv_maxrate=14000 / vbv_bufsize=14000 / nal_hrd=none / filler=0 / ip_ratio=1.40 / aq=1:1.00
Language : Russian
Default : Yes
Forced : Yes

Audio #1
ID : 2
Format : AC-3
Format/Info : Audio Coding 3
Mode extension : CM (complete main)
Format settings, Endianness : Big
Codec ID : A_AC3
Duration : 3 h 2 min
Bit rate mode : Constant
Bit rate : 192 kb/s
Channel(s) : 2 channels
Channel positions : Front: L R
Sampling rate : 48.0 kHz
Frame rate : 31.250 FPS (1536 spf)
Bit depth : 16 bits
Compression mode : Lossy
Stream size : 251 MiB (7%)
Title : 2.0 @ 192 kbps
Language : Ukrainian
Default : Yes
Forced : Yes

Audio #2
ID : 3
Format : AC-3
Format/Info : Audio Coding 3
Mode extension : CM (complete main)
Format settings, Endianness : Big
Codec ID : A_AC3
Duration : 3 h 2 min
Bit rate mode : Constant
Bit rate : 448 kb/s
Channel(s) : 6 channels
Channel positions : Front: L C R, Side: L R, LFE
Sampling rate : 48.0 kHz
Frame rate : 31.250 FPS (1536 spf)
Bit depth : 16 bits
Compression mode : Lossy
Stream size : 585 MiB (15%)
Title : 5.1 @ 448 kbps
Language : English
Default : No
Forced : No

Text #1
ID : 4
Format : UTF-8
Codec ID : S_TEXT/UTF8
Codec ID/Info : UTF-8 Plain Text
Duration : 2 h 54 min
Bit rate : 17 b/s
Count of elements : 384
Stream size : 22.4 KiB (0%)
Title : Forced
Language : Ukrainian
Default : Yes
Forced : Yes

Text #2
ID : 5
Format : UTF-8
Codec ID : S_TEXT/UTF8
Codec ID/Info : UTF-8 Plain Text
Duration : 2 h 53 min
Bit rate : 66 b/s
Count of elements : 1615
Stream size : 84.1 KiB (0%)
Title : Full
Language : Ukrainian
Default : No
Forced : No

Text #3
ID : 6
Format : UTF-8
Codec ID : S_TEXT/UTF8
Codec ID/Info : UTF-8 Plain Text
Duration : 2 h 53 min
Bit rate : 40 b/s
Count of elements : 1584
Stream size : 50.8 KiB (0%)
Title : Full
Language : English
Default : No
Forced : No

Text #4
ID : 7
Format : UTF-8
Codec ID : S_TEXT/UTF8
Codec ID/Info : UTF-8 Plain Text
Duration : 2 h 53 min
Bit rate : 46 b/s
Count of elements : 1913
Stream size : 58.5 KiB (0%)
Title : SDH
Language : English
Default : No
Forced : No

Menu
00:00:00.000 : :00:00:00.000
00:10:10.652 : :00:10:10.652
00:27:00.661 : :00:27:00.661
00:37:49.225 : :00:37:49.225
00:46:54.520 : :00:46:54.520
01:02:04.971 : :01:02:04.971
01:14:10.613 : :01:14:10.613
01:28:07.115 : :01:28:07.115
01:41:46.642 : :01:41:46.642
01:53:52.617 : :01:53:52.617
02:02:58.079 : :02:02:58.079
02:15:04.054 : :02:15:04.054
02:27:55.075 : :02:27:55.075
02:36:51.444 : :02:36:51.444
02:48:27.514 : :02:48:27.514
02:54:43.765 : :02:54:43.765

Джерело: &
Особиста оцінка: 8 - мені сподобалося
Загін самогубців (Розширена версія) / Suicide Squad (Extended Cut) (2016) AVC Ukr/Eng | Sub Eng
Загін самогубців [Розширена версія] / Suicide Squad [Extended Cut] (2016) AVC Ukr/Eng | Sub Eng

Розширений всесвіт DC: Колекція фільмів / DCEU: Collection (2013-2017) AVC Ukr/Eng | Sub Ukr/Eng


Жанр: екшн, фантастика, пригодницький
Країна: США



Кінокомпанія: DC Entertainment, RatPac-Dune Entertainment, Atlas Entertainment / Warner Bros. Pictures
Режисер: Девід Ейр
Актори: Марго Роббі, Вілл Сміт, Джаред Лето, Джей Кортні, Кара Делавінь, Джоел Кіннаман, Джей Ернандес, Адевале Акіноє-Аґбаже, Карен Фукугара, Віола Девіс та інші

Сюжет:
Важкі часи вимагають важких рішень. Урядове агентство змушене зібрати групу злодіїв для виконання небезпечних завдань і цілей. "Загін самогубців" натомість отримає більш короткі терміни позбавлення волі. Але чи варто випускати монстрів навіть заради доброї справи?


Тривалість: 02:14:32
Якість: AVC
Відео:
кодек:
розмір кадру: 1056 х 440
бітрейт: 2 200 кб/с

Аудіо # 1:
мова: українська
переклад: професійний дубльований з вставками оригіналу
кодек: AС3 1.0
бітрейт: 192 кб/с

Аудіо # 2:
мова: англійська
переклад: оригінал
кодек: 5.1
бітрейт: 448 кб/с

Субтитри:
мова: українська (форсовані на розширені моменти)
тип: програмні (м'які)
формат: *.srt

Субтитри:
мова: англійська
тип: програмні (м'які)
формат: *.srt
Скріншоти






Info
Цитата:


General
Unique ID : 186614256827140731104247297522567941733 (0x8C64993915BA4BF592E22D5991FF0E65)
Complete name : D:\DC Extended Universe Collection AVC [Ukr]\03. Suicide Squad [Extended Cut] (2016) AVC [Ukr.Eng, Sub Eng] [Hurtom].
Format :
Format version : Version 4 / Version 2
File size : 2.67 GiB
Duration : 2 h 14 min
Overall bit rate : 2 842 kb/s
Movie name : Suicide Squad (2016)
Encoded date : UTC 2016-12-20 08:46:09
Writing application : mkvmerge v9.4.0 ('Knurl') 32bit
Writing library : libebml v1.3.4 + libmatroska v1.4.5

Video
ID : 1
Format : AVC
Format/Info : Advanced Video Codec
Format profile : [email protected]
Format settings, CABAC : Yes
Format settings, ReFrames : 10 frames
Codec ID : V_MPEG4/ISO/AVC
Duration : 2 h 14 min
Bit rate : 2 200 kb/s
Width : 1 056 pixels
Height : 440 pixels
Display aspect ratio : 2.40:1
Frame rate mode : Constant
Frame rate : 23.976 FPS
Color space : YUV
Chroma subsampling : 4:2:0
Bit depth : 8 bits
Scan type : Progressive
Bits/(Pixel*Frame) : 0.197
Stream size : 2.07 GiB (77%)
Writing library : core 146 r2538 121396c
Encoding settings : cabac=1 / ref=10 / deblock=1:-2:-2 / analyse=0x3:0x113 / me=umh / subme=11 / psy=1 / psy_rd=0.99:0.03 / mixed_ref=1 / me_range=48 / chroma_me=1 / trellis=2 / 8x8dct=1 / cqm=0 / deadzone=21,11 / fast_pskip=0 / chroma_qp_offset=-3 / threads=9 / lookahead_threads=2 / sliced_threads=0 / nr=0 / decimate=0 / interlaced=0 / bluray_compat=0 / constrained_intra=0 / bframes=11 / b_pyramid=2 / b_adapt=2 / b_bias=0 / direct=3 / weightb=1 / open_gop=0 / weightp=2 / keyint=240 / keyint_min=23 / scenecut=40 / intra_refresh=0 / rc_lookahead=60 / rc=2pass / mbtree=0 / bitrate=2200 / ratetol=1.0 / qcomp=0.70 / qpmin=0 / qpmax=69 / qpstep=4 / cplxblur=20.0 / qblur=0.5 / vbv_maxrate=14000 / vbv_bufsize=14000 / nal_hrd=none / filler=0 / ip_ratio=1.40 / pb_ratio=1.30 / aq=1:0.80
Language : English
Default : Yes
Forced : No

Audio #1
ID : 2
Format : AC-3
Format/Info : Audio Coding 3
Mode extension : CM (complete main)
Format settings, Endianness : Big
Codec ID : A_AC3
Duration : 2 h 14 min
Bit rate mode : Constant
Bit rate : 192 kb/s
Channel(s) : 1 channel
Channel positions : Front: C
Sampling rate : 48.0 kHz
Frame rate : 31.250 FPS (1536 spf)
Bit depth : 16 bits
Compression mode : Lossy
Stream size : 185 MiB (7%)
Title : Дубляж
Language : Ukrainian
Default : Yes
Forced : No

Audio #2
ID : 3
Format : AC-3
Format/Info : Audio Coding 3
Mode extension : CM (complete main)
Format settings, Endianness : Big
Codec ID : A_AC3
Duration : 2 h 14 min
Bit rate mode : Constant
Bit rate : 448 kb/s
Channel(s) : 6 channels
Channel positions : Front: L C R, Side: L R, LFE
Sampling rate : 48.0 kHz
Frame rate : 31.250 FPS (1536 spf)
Bit depth : 16 bits
Compression mode : Lossy
Stream size : 431 MiB (16%)
Title : Original
Language : English
Default : No
Forced : No

Text #1
ID : 4
Format : UTF-8
Codec ID : S_TEXT/UTF8
Codec ID/Info : UTF-8 Plain Text
Duration : 1 h 45 min
Bit rate : 13 b/s
Count of elements : 219
Stream size : 10.6 KiB (0%)
Title : Forced
Language : Ukrainian
Default : Yes
Forced : No

Text #2
ID : 5
Format : UTF-8
Codec ID : S_TEXT/UTF8
Codec ID/Info : UTF-8 Plain Text
Duration : 2 h 6 min
Bit rate : 46 b/s
Count of elements : 1507
Stream size : 43.1 KiB (0%)
Title : Full
Language : English
Default : No
Forced : No

Menu
00:00:00.000 : en:(01)00:00:00:000
00:09:08.505 : en:(02)00:09:08:505
00:20:22.971 : en:(03)00:20:22:971
00:31:14.705 : en:(04)00:31:14:705
00:41:04.878 : en:(05)00:41:04:878
00:52:21.804 : en:(06)00:52:21:804
01:04:48.842 : en:(07)01:04:48:842
01:21:12.742 : en:(08)01:21:12:742
01:32:11.943 : en:(09)01:32:11:943
01:42:57.671 : en:(10)01:42:57:671
01:50:58.652 : en:(11)01:50:58:652
02:04:04.811 : en:(12)02:04:04:811

Джерело: &
Особиста оцінка: 6 - третій сорт - не брак
Диво-жінка / Wonder Woman (2017) AVC Ukr/Eng | Sub Eng
Диво-жінка / Wonder Woman (2017) AVC Ukr/Eng | Sub Eng

Розширений всесвіт DC: Колекція фільмів / DCEU: Collection (2013-2017) AVC Ukr/Eng | Sub Ukr/Eng


Жанр: фантастика, фентезі, бойовик, пригоди
Країна: США



Кінокомпанія: Warner Bros. Pictures, DC Entertainment
Режисер: Петті Дженкінс
Актори: Галь Гадот, Робін Райт, Кріс Пайн, Конні Нільсен, Девід Тьюліс, Олена Аная, Люсі Девіс

Сюжет:
Головна героїня фільму – Діана (Галь Гадот). Вона принцеса амазонок, мила, добра і привітна дівчина. Але якщо вам не пощастило стати її ворогом, то ви взнаєте Діану зовсім з іншого боку. Крім ідеального володіння технікою бою, вона має в розпорядженні ласо, за допомогою якого змушує всіх говорити тільки правду. На острові, де живе Діана, зазнає аварії літак. Пілот Стів Тревор (Кріс Пайн) розповідає дівчині про війну, яка охопила весь світ. Діана не може залишатися осторонь і разом зі Стівом вступає в битву за мир.


Тривалість: 02:21:16
Якість: AVC
Відео:
кодек:
розмір кадру: 1024 х 426
бітрейт: 2258 кб/с

Аудіо # 1:
мова: українська
переклад: професійний дубльований
кодек: 2.0
бітрейт: 192 кб/с

Аудіо # 2:
мова: англійська
переклад: оригінал
кодек: 5.1
бітрейт: 448 кб/с

Субтитри (Forced):
мова: українська
тип: програмні (м'які)
формат: *.srt

Субтитри:
мова: англійська
тип: програмні (м'які)
формат: *.srt
Скріншоти





Info
Цитата:



General
Unique ID : 176357500944885033559636004110090241601 (0x84AD381D680728B5BE4732B69C9A0641)
Complete name : D:\DC Extended Universe Collection AVC [Ukr]\04. Wonder Woman (2017) AVC [Ukr, Eng] [Hurtom].
Format :
Format version : Version 4 / Version 2
File size : 2.86 GiB
Duration : 2 h 21 min
Overall bit rate : 2 901 kb/s
Encoded date : UTC 2017-09-09 08:05:11
Writing application : mkvmerge v14.0.0 ('Flow') 64bit
Writing library : libebml v1.3.4 + libmatroska v1.4.5
Cover : Yes
Attachments : cover

Video
ID : 1
Format : AVC
Format/Info : Advanced Video Codec
Format profile : [email protected]
Format settings, CABAC : Yes
Format settings, ReFrames : 10 frames
Codec ID : V_MPEG4/ISO/AVC
Duration : 2 h 21 min
Bit rate : 2 258 kb/s
Width : 1 024 pixels
Height : 426 pixels
Display aspect ratio : 2.40:1
Frame rate mode : Constant
Frame rate : 23.976 (24000/1001) FPS
Color space : YUV
Chroma subsampling : 4:2:0
Bit depth : 8 bits
Scan type : Progressive
Bits/(Pixel*Frame) : 0.216
Stream size : 2.23 GiB (78%)
Writing library : core 146 r2538 121396c
Encoding settings : cabac=1 / ref=10 / deblock=1:-3:-3 / analyse=0x3:0x133 / me=umh / subme=11 / psy=1 / psy_rd=1.00:0.07 / mixed_ref=1 / me_range=48 / chroma_me=1 / trellis=2 / 8x8dct=1 / cqm=0 / deadzone=21,11 / fast_pskip=0 / chroma_qp_offset=-3 / threads=6 / lookahead_threads=1 / sliced_threads=0 / nr=0 / decimate=0 / interlaced=0 / bluray_compat=0 / constrained_intra=0 / bframes=10 / b_pyramid=2 / b_adapt=2 / b_bias=0 / direct=3 / weightb=1 / open_gop=0 / weightp=2 / keyint=240 / keyint_min=23 / scenecut=40 / intra_refresh=0 / rc_lookahead=40 / rc=2pass / mbtree=0 / bitrate=2258 / ratetol=1.0 / qcomp=0.60 / qpmin=0 / qpmax=69 / qpstep=4 / cplxblur=20.0 / qblur=0.5 / vbv_maxrate=50000 / vbv_bufsize=62500 / nal_hrd=none / filler=0 / ip_ratio=1.40 / pb_ratio=1.30 / aq=1:1.00
Language : English
Default : Yes
Forced : No

Audio #1
ID : 2
Format : AC-3
Format/Info : Audio Coding 3
Mode extension : CM (complete main)
Format settings, Endianness : Big
Codec ID : A_AC3
Duration : 2 h 21 min
Bit rate mode : Constant
Bit rate : 192 kb/s
Channel(s) : 2 channels
Channel positions : Front: L R
Sampling rate : 48.0 kHz
Frame rate : 31.250 FPS (1536 spf)
Bit depth : 16 bits
Compression mode : Lossy
Stream size : 194 MiB (7%)
Title : 2.0 @ 192 kbps
Language : Ukrainian
Default : Yes
Forced : Yes

Audio #2
ID : 3
Format : AC-3
Format/Info : Audio Coding 3
Mode extension : CM (complete main)
Format settings, Endianness : Big
Codec ID : A_AC3
Duration : 2 h 21 min
Bit rate mode : Constant
Bit rate : 448 kb/s
Channel(s) : 6 channels
Channel positions : Front: L C R, Side: L R, LFE
Sampling rate : 48.0 kHz
Frame rate : 31.250 FPS (1536 spf)
Bit depth : 16 bits
Compression mode : Lossy
Stream size : 453 MiB (15%)
Title : 5.1 @ 448 kbps
Language : English
Default : No
Forced : No

Text #1
ID : 4
Format : UTF-8
Codec ID : S_TEXT/UTF8
Codec ID/Info : UTF-8 Plain Text
Duration : 2 h 8 min
Bit rate : 1 b/s
Count of elements : 24
Stream size : 1.13 KiB (0%)
Title : Forced
Language : Ukrainian
Default : Yes
Forced : Yes

Text #2
ID : 5
Format : UTF-8
Codec ID : S_TEXT/UTF8
Codec ID/Info : UTF-8 Plain Text
Duration : 2 h 20 min
Bit rate : 44 b/s
Count of elements : 1586
Stream size : 46.1 KiB (0%)
Title : Full
Language : English
Default : No
Forced : No

Text #3
ID : 6
Format : UTF-8
Codec ID : S_TEXT/UTF8
Codec ID/Info : UTF-8 Plain Text
Duration : 2 h 20 min
Bit rate : 50 b/s
Count of elements : 1827
Stream size : 52.0 KiB (0%)
Title : SDH
Language : English
Default : No
Forced : No

Menu
00:00:00.000 : en:00:00:00.000
00:10:26.918 : en:00:10:26.918
00:23:12.558 : en:00:23:12.558
00:33:10.739 : en:00:33:10.739
00:43:55.132 : en:00:43:55.132
00:54:25.554 : en:00:54:25.554
01:07:38.263 : en:01:07:38.263
01:22:30.195 : en:01:22:30.195
01:34:02.846 : en:01:34:02.846
01:45:37.998 : en:01:45:37.998
01:57:43.765 : en:01:57:43.765
02:10:41.417 : en:02:10:41.417
Джерело: &
Особиста оцінка: 8 - мені сподобалося
Подяка пану Demrandir за синхронізацію доріжкок до розширених версій.

Джерело: &
Особиста оцінка: 9 - давно не бачив настільки якісне кіно


Бронзовий реліз (на рейтинг впливає 75% завантаженого)
 Трекер:    Зареєстрований   

Завантажити / скачати фільм українською



відео для новачків



 Зареєстрований:   2017-11-12 22:08
 Розмір:   12.88 GB 
 Оцінка фільму:   8.5/10 (Голосів: 25)
   
zoomymba2012 
Поважний учасник


З нами з: 08.01.15
Востаннє: 21.11.17
Повідомлень: 167

2017-11-12 22:15  
P.S. Буду працювати над релізом (покращувати). І при виході нових фільмів від DC, додавати сюди.
bogdanich 
VIP


З нами з: 24.10.13
Востаннє: 21.11.17
Повідомлень: 516

2017-11-12 23:34  
"Диво-жіка" сподобалася найбільше. А взагалі, маю такі оцінки:
Людина зі сталі - 8/10.
Бетмен проти Супермена: На зорі справедливості - 6/10.
Загін самогубців - 3/10.
Диво-жіка - 8/10.
Чекаю на "Лігу справедливості". Але чомусь мені здається, що більше ніж на 8/10 в них не вийде.

diesel55 
Новенький


З нами з: 06.05.14
Востаннє: 21.11.17
Повідомлень: 3

2017-11-13 12:10  
Було б чудово, створити аналогічну збірку від студії/компанії MARVEL.
kinaxem 
Свій


З нами з: 21.12.16
Востаннє: 21.11.17
Повідомлень: 111

2017-11-13 12:15  
diesel55 написано:
Було б чудово, створити аналогічну збірку від студії/компанії MARVEL.

+1

Bod_zik99 
VIP


З нами з: 28.12.13
Востаннє: 21.11.17
Повідомлень: 1253

2017-11-13 13:39  
Цікаво, як люди будуть знаходити цей реліз в пошуку...
hetzendorf 
Відео Гуртом - підтримка та поширення
Відео Гуртом - підтримка та поширення


З нами з: 23.07.15
Востаннє: 21.11.17
Повідомлень: 578

2017-11-13 13:46  
У голосуванні бракує пунктів «Не подобається жоден», «Не мій жанр».
747 
Поважний учасник


З нами з: 21.05.10
Востаннє: 21.11.17
Повідомлень: 156

2017-11-13 14:33  
zoomymba2012 написано:
Який ваший улюблений фільм ДСЕЮ?

а чому нема варіанту відповіді на кшталт "усе лайно" ????

zoomymba2012 
Поважний учасник


З нами з: 08.01.15
Востаннє: 21.11.17
Повідомлень: 167

2017-11-13 16:05  
747
Якщо вам "усе від дс *****", то що ви тут забули тоді?

kinaxem 
Свій


З нами з: 21.12.16
Востаннє: 21.11.17
Повідомлень: 111

2017-11-13 16:13  
zoomymba2012 написано:
Якщо вам "усе від дс *****", то що ви тут забули тоді?

Реліз гарний, і фільми теж, забийте... І звісно ж Дякую гарно)))

Але, все ж варто було б придумати якусь назву цій колекції, а то ж не всі й знають що воно таке DC Extended Universe чиї фільми особисто мені подобаються більше за марвелівські...

don pedro 
Попереджень: 1
Попереджень: 1 


З нами з: 29.06.11
Востаннє: 21.11.17
Повідомлень: 10651

2017-11-13 16:27  
Bod_zik99 написано:
Цікаво, як люди будуть знаходити цей реліз в пошуку...

Ніяк.
hetzendorf
Я, наприклад не терплю аніме, але ж я не заходжу у відповідний розділ і не заявляю про це.

hetzendorf 
Відео Гуртом - підтримка та поширення
Відео Гуртом - підтримка та поширення


З нами з: 23.07.15
Востаннє: 21.11.17
Повідомлень: 578

2017-11-13 16:46  
don pedro
Я не «про це», а про голосування. З пропозицією реорганізувати. Бо в теперішньому вигляді результати будуть на кшталт «За даними Інтернет-опитування, 100 % респондентів користуються Інтернетом». Вам, як ліберальному демократу, має бути соромно не збагнути цей момент! @[email protected]
don pedro написано:
Я, наприклад не терплю аніме, але ж я не заходжу у відповідний розділ

З пропозиціями по ділу кожен може заходити

zoomymba2012 
Поважний учасник


З нами з: 08.01.15
Востаннє: 21.11.17
Повідомлень: 167

2017-11-13 18:15  
hetzendorf
Це голосування не на оцінку самого ДС і його фільмів, а на "ваш улюбленний фільм". Якщо нема то не голосуйте, опит для фанів создано. Потім ще якось проведемо, вже як ви сказали.

don pedro 
Попереджень: 1
Попереджень: 1 


З нами з: 29.06.11
Востаннє: 21.11.17
Повідомлень: 10651

2017-11-13 18:26  
hetzendorf
Так питання чітко сформоване: Який ваш улюблений фільм ДСЕЮ? Причому, йдеться саме про ці фільми. Там нічого не питали про якісь жанри, чи інші фільми.

11FrYkT 
Модератор відео


З нами з: 20.02.11
Востаннє: 21.11.17
Повідомлень: 4053

2017-11-13 23:10  
zoomymba2012 написано:

Субтитри:
мова: українська (форсовані на розширені моменти)
тип: програмні (м'які)

Субтитри:
мова: англійська
тип: програмні (м'які)


у всіх субтитрах вказати формат

також у фільмі Загін самогубців скріншоти не відповідають вказаному розміру

Mongoose 
Свій


З нами з: 27.03.16
Востаннє: 21.11.17
Повідомлень: 85

2017-11-13 23:51  
ДС? Детектів Сомікс? Або хай буде DC , або вже , хоча-б, ДК.
А де Зелений Ліхтар? Він теж у Лізі за коміксами. За чутками - має бути після титрів у ЛС.
Ну і якщо є фільм про Супермена, то вартувало б трилогію Нолана додати, шолі...

zoomymba2012 
Поважний учасник


З нами з: 08.01.15
Востаннє: 21.11.17
Повідомлень: 167

2017-11-14 13:43  
Mongoose
ДК не звучить. А назви не перекладаються, ДС [дісі] (без розшифровки) - так всі називають

Додано через 1 хвилину 5 секунд:

Mongoose
Трилогія Нолана не має відношення до DCEU.

SERG_RT7 
Новенький


З нами з: 27.01.13
Востаннє: 18.11.17
Повідомлень: 5

2017-11-15 10:59  
Цитата:
zoomymba2012
Це голосування не на оцінку самого ДС і його фільмів, а на "ваш улюбленний фільм". Якщо нема то не голосуйте, опит для фанів создано. Потім ще якось проведемо, вже як ви сказали.

ну то варто було б додати хоча б пункт -"інший", або назвати "який із цих чотирьох ваш улюблений"!

zoomymba2012 
Поважний учасник


З нами з: 08.01.15
Востаннє: 21.11.17
Повідомлень: 167

2017-11-15 16:41  
SERG_RT7
О господи.
Цитата:
Який ваший улюблений фільм ДСЕЮ?

Я і вказав всі фільмі цього всесвіту, які наразі вийшли.

ervi 
Новенький


З нами з: 03.06.10
Востаннє: 21.11.17
Повідомлень: 17

2017-11-15 16:46  
так, мабуть варто пояснити
dceu стартував з "людина зі сталі"
все, що до нього дс, але не дсею
так само серіали дс (флеш, стріла, легенди майбутнього, готем) - теж не мають відношення до дсею

SERG_RT7 
Новенький


З нами з: 27.01.13
Востаннє: 18.11.17
Повідомлень: 5

2017-11-15 19:23  
Все-рівно з назвою опитування
Цитата:
Який ваший улюблений фільм ДСЕЮ?
щось не те )
доречніше було б запитати який фільм з серії більш сподобався.
мені наприклад більш сподобався "диво -жінка" , проте точно не являється "улюбленим ""

Mongoose 
Свій


З нами з: 27.03.16
Востаннє: 21.11.17
Повідомлень: 85

2017-11-16 22:33  
SERG_RT7 написано:
Все-рівно з назвою опитування

А слово "ваший" вас не бентежить?)

zoomymba2012 
Поважний учасник


З нами з: 08.01.15
Востаннє: 21.11.17
Повідомлень: 167

2017-11-17 22:13  
Mongoose
упс. Я все життя говорив російською, тому й помилився, вибачте

TheAlexPro 
Новенький


З нами з: 12.09.17
Востаннє: 19.11.17
Повідомлень: 3

2017-11-17 23:41  
Хто знає коли вийде на толоку фільм "Ліга Справедливості"
zoomymba2012 
Поважний учасник


З нами з: 08.01.15
Востаннє: 21.11.17
Повідомлень: 167

2017-11-18 15:59  
TheAlexPro
Приблизно в середині березня 2018. В кінотеатрах ще як місяць буде йти

Додано через 49 секунд:

TheAlexPro
Як тільки появиться в мережі - оновлю реліз з Лігою

TheAlexPro 
Новенький


З нами з: 12.09.17
Востаннє: 19.11.17
Повідомлень: 3

2017-11-19 13:54  
Зробіть це як найшвичу,я дуже чекаю ЛІГУ СПРАВЕДЛИВОСТІ!!!
Ваш часовий пояс: GMT + 2 Години

Нова тема   Відповісти