Czeremszyna - „...” (2000) [WV] | Folk

Нові коментарі

Нова тема   Відповісти
Автор Повідомлення
ssTAss 
Модератор музики


З нами з: 05.07.08
Востаннє: 22.11.17
Повідомлень: 12277

2017-11-12 14:46  
Czeremszyna - „...” (2000) [WV] | Folk

Czeremszyna - „...” (2000) [WV] | Folk


Стиль: Folk
Країна, місто: Польща, Черемха
Сайти: Офіційний сайт
Видавець: гурт
Виконавці:
Barbara Kuzub-Samosiuk - акордеон, словацька фуяра, вокал
Mirosław Samosiuk - балалайка басова, вокал
Joanna Grabowska - вокал
Magdalena Kowalska - сопілки, вокал
Maria Musiuk - вокал
Magdalena Zinkow-Antoniuk - перкусія, вокал
Marek Ławreszuk - скрипка
Romuald Rakowski - перкусія
Krzysztof Sawicki - гітара, мандоліна
Пісні:
    01. Oj smereko
    02. Wisyt jabko
    03. Oj na hory dwa dubki
    04. Horiła sosna
    05. Tecze woda
    06. Czerez pole
    07. Wysyłała maty
    08. Czamuż nam nie pieć
    09. Zabawa
    10. Cwite tereń
log
Exact Audio Copy V1.0 beta 1 from 15. November 2010

EAC extraction logfile from 2. May 2015, 0:01

Czeremszyna / ...

Used drive : HL-DT-STDVDRAM GSA-T20N Adapter: 0 ID: 0

Read mode : Secure
Utilize accurate stream : Yes
Defeat audio cache : Yes
Make use of C2 pointers : No

Read offset correction : 667
Overread into Lead-In and Lead-Out : No
Fill up missing offset samples with silence : Yes
Delete leading and trailing silent blocks : No
Null samples used in CRC calculations : Yes
Used interface : Native Win32 interface for Win NT & 2000

Used output format : User Defined Encoder
Selected bitrate : 896 kBit/s
Quality : High
Add ID3 tag : No
Command line compressor : C:\Program Files\Exact Audio Copy\wavpack.exe
Additional command line options : -hlm %s

TOC of the extracted CD

Track | Start | Length | Start sector | End sector
---------------------------------------------------------
1 | 0:00.00 | 3:35.70 | 0 | 16194
2 | 3:35.70 | 2:42.57 | 16195 | 28401
3 | 6:18.52 | 5:34.45 | 28402 | 53496
4 | 11:53.22 | 6:01.50 | 53497 | 80621
5 | 17:54.72 | 3:30.53 | 80622 | 96424
6 | 21:25.50 | 5:42.02 | 96425 | 122076
7 | 27:07.52 | 4:24.53 | 122077 | 141929
8 | 31:32.30 | 3:52.42 | 141930 | 159371
9 | 35:24.72 | 5:03.58 | 159372 | 182154
10 | 40:28.55 | 6:02.12 | 182155 | 209316

Range status and errors

Selected range

Filename D:\Czeremszyna\Czeremszyna - ....wav

Peak level 100.0 %
Extraction speed 0.5 X
Range quality 100.0 %
Test CRC 2508FD15
Copy CRC 2508FD15
Copy OK

No errors occurred

AccurateRip summary

Track 1 cannot be verified as accurate (confidence 1) [3DDAFABE], AccurateRip returned [CBC39DAE]
Track 2 cannot be verified as accurate (confidence 1) [85C32C7B], AccurateRip returned [6E2FD783]
Track 3 cannot be verified as accurate (confidence 1) [31453760], AccurateRip returned [D1A9DB61]
Track 4 cannot be verified as accurate (confidence 1) [D1628D6D], AccurateRip returned [E59EEFA6]
Track 5 cannot be verified as accurate (confidence 1) [68A683AE], AccurateRip returned [20317F39]
Track 6 cannot be verified as accurate (confidence 1) [A2D56919], AccurateRip returned [7B910C66]
Track 7 cannot be verified as accurate (confidence 1) [A0357E74], AccurateRip returned [03E7CC0C]
Track 8 cannot be verified as accurate (confidence 1) [5640D6BC], AccurateRip returned [1540BDB7]
Track 9 cannot be verified as accurate (confidence 1) [058FA7FB], AccurateRip returned [5C59A94A]
Track 10 cannot be verified as accurate (confidence 1) [64034A7C], AccurateRip returned [9230F13C]

No tracks could be verified as accurate
You may have a different pressing from the one(s) in the database

End of status report

==== Log checksum B83D9F69CFCD907E0B815A90B44F2AB2A3E7A5324EB61B4D70C564EA7E71FF47 ====
Тривалість: 00:46:31
Мова: українська, білоруська (8)
Аудіо-кодек: WavPack
Бітрейт: 959 кб/с
Джерело: нетлаб

Якщо Ви справді бажаєте підтримати українське - після прослуховування, якщо музика вам сподобалась,
придбайте ліцензійний диск.
Підтримаймо вітчизняних виконавців!


Срібний реліз (на рейтинг впливає 50% завантаженого)
 Трекер:    Зареєстрований   

Завантажити / скачати українську музику



відео для новачків



 Зареєстрований:   2017-11-12 14:46
 Розмір:   361 MB 
 Оцінка музики:   2.5/10 (Голосів: 12)
   
Ваш часовий пояс: GMT + 2 Години

Нова тема   Відповісти