Тачки / Cars (2006) Remux 1080p Ukr/Eng | Sub Ukr/Eng

Нові коментарі

Нова тема   Відповісти
Автор Повідомлення
Argentum 
Поважний учасник


З нами з: 25.09.11
Востаннє: 25.05.19
Повідомлень: 200

2017-11-10 17:04  
Тачки / Cars (2006) Remux 1080p Ukr/Eng | Sub Ukr/Eng

Тачки / Cars (2006) Remux 1080p Ukr/Eng | Sub Ukr/Eng


Жанр: анімація, пригодницький, комедія, сімейний, спорт
Країна: США



Кінокомпанія: Walt Disney Pictures, Pixar Animation Studios
Режисер: Джон Лассетер, Джо Ранфт
Актори: Овен Вілсон, Пол Ньюман, Ларрі Кейбл Гай, Бонні Гант, Майкл Кітон, Джон Ратценбергер, Ллойд Шерр, Пол Дулі, Тоні Шалуб, Данило де Гіроламо, Чіч Марін, Дженіфер Льюїс, Майкл Волліс та інші.

Сюжет:
Неприборканий у своєму бажанні завжди і у всьому перемагати гоночний автомобіль «Блискавка» МакКвін раптом виявляє, що збився з дороги і застряг в маленькому глухому містечку Радіаторний Рай, що знаходиться десь на трасі 66 в Каліфорнії.

Беручи участь в гонках на Кубок Поршня, де йому протистояли два дуже досвідчених суперника, МакКвін абсолютно не чекав, що віднині йому доведеться спілкуватися з персонажами зовсім іншого роду. Це, наприклад, Салі — шикарний Порше 2002-го року випуску, Док Гадсон — легковичок моделі «Гудзон Горнет», 1951-го року випуску або Сирник — іржавий вантажівочка-евакуатор. І всі вони допомагають МакКвіну зрозуміти, що в світі існують деякі важливіші речі, ніж слава, призи і спонсори.


Тривалість: 01:56:35
Якість: Remux
Відео:
кодек:
розмір кадру: 1920 х 1080
бітрейт: 22,4 Мб/с

Аудіо # 1:
мова: українська
переклад: професійний дубльований
кодек: 5.1
бітрейт: 448 кб/с
Про дубляж
Фільм перекладено і дубльовано на студії Невафільм Україна на замовлення «Disney Character Voices International».

Переклад і автор синхронного тексту — Олекса Негребецький
Режисер дубляжу — Костянтин Лінартович
Звукорежисер — Олег Кульчицький
Звукомонтажери — Тетяна Гожікова, Світлана Іванова
Звукорежисер перезапису — Владислав Іваровський
Творчий консультант — Маріуш Арно Яворовський

Ролі дублювали:
Блискавка МакКвін - Остап Ступка
Док Гадсон - Олександр Ігнатуша
Сирник - Юрій Коваленко
Саллі - Ольга Сумська
Шик Гікс - Андрій Середа
Мак - Володимир Жогло
Доливай - Володимир Терещук
Сержант - Костянтин Лінартович
Луїджі - Юрій Коваленко
Гвідо - Данило де Гіроламо
Рамон - Максим Кондратюк
Фло - Наталя Надірадзе
Шериф - Володимир Нечепоренко
Ліззі - Валентина Зимня
Король - Євген Малуха
Пані Король - Валентина Гришокіна
Тех - Володимир Задніпровський
Гарв - Євген Шах
Боб Картер - Анатолій Зіновенко
Даррел Кардан, Маріо Андретті - Роман Семисал
Джей Лімо, Крилун, Не Чак - Роман Чорний
Корі Турбович - Лариса Руснак
Брень, Петербілт - Володимир Мельник
Дзень, Міхаель Шумахер - Володимир Голосняк
Бусик, Фред - Юрій Ребрик
Буся - Ірина Дорошенко
Тіа, Міа - Ольга Гузь
Шмаркач - Олександр Форманчук
Форсаж - Дмитро Лінартович
Ді Джей - Дмитро Сова
Аудіо # 2:
мова: англійська
переклад: оригінал
кодек: 5.1
бітрейт: 1536 кб/с

Субтитри 1-2: (форсовані, повні)
мова: українська
тип: програмні (м'які)
формат: *.srt

Субтитри 3:
мова: англійська
тип: програмні (м'які)
формат: *.srt
Info
General
Unique ID : 194183964326508826275715000222402772329 (0x9216789E0C58D853F2C39DD10B507D69)
Complete name : /home/jacks/Videos/My/Cars/Cars (2006) [Ukr,Eng] Remux 1080p [Hurtom].
Format :
Format version : Version 4 / Version 2
File size : 20.0 GiB
Duration : 1 h 56 min
Overall bit rate mode : Variable
Overall bit rate : 24.6 Mb/s
Movie name : Release for HURTOM.COM
Encoded date : UTC 2017-11-10 12:13:19
Writing application : v17.0.0 ('Be Ur Friend') 64-bit
Writing library : libebml v1.3.5 + v1.4.8
Attachments : poster_Cars_poster_b.jpg

Video
ID : 1
Format : AVC
Format/Info : Advanced Video Codec
Format profile : [email protected]
Format settings : CABAC / 2 Ref Frames
Format settings, CABAC : Yes
Format settings, ReFrames : 2 frames
Codec ID : V_MPEG4/ISO/AVC
Duration : 1 h 56 min
Bit rate mode : Variable
Bit rate : 22.4 Mb/s
Width : 1 920 pixels
Height : 1 080 pixels
Display aspect ratio : 16:9
Frame rate mode : Constant
Frame rate : 23.976 (24000/1001) FPS
Color space : YUV
Chroma subsampling : 4:2:0
Bit depth : 8 bits
Scan type : Progressive
Bits/(Pixel*Frame) : 0.451
Stream size : 18.3 GiB (91%)
Title : AVC @ 22.4 Mbps
Default : Yes
Forced : No

Audio #1
ID : 2
Format : AC-3
Format/Info : Audio Coding 3
Codec ID : A_AC3
Duration : 1 h 56 min
Bit rate mode : Constant
Bit rate : 640 kb/s
Channel(s) : 6 channels
Channel positions : Front: L C R, Side: L R, LFE
Sampling rate : 48.0 kHz
Frame rate : 31.250 FPS (1536 SPF)
Bit depth : 16 bits
Compression mode : Lossy
Stream size : 534 MiB (3%)
Title : 5.1 @ 640 kbps
Language : Ukrainian
Service kind : Complete Main
Default : Yes
Forced : Yes

Audio #2
ID : 3
Format :
Format/Info : Digital Theater Systems
Codec ID : A_DTS
Duration : 1 h 56 min
Bit rate mode : Constant
Bit rate : 1 510 kb/s
Channel(s) : 6 channels
Channel positions : Front: L C R, Side: L R, LFE
Sampling rate : 48.0 kHz
Frame rate : 93.750 FPS (512 SPF)
Bit depth : 24 bits
Compression mode : Lossy
Stream size : 1.23 GiB (6%)
Title : 5.1 @ 1536 kbps
Language : English
Default : No
Forced : No

Text #1
ID : 4
Format : UTF-8
Codec ID : S_TEXT/UTF8
Codec ID/Info : UTF-8 Plain Text
Duration : 1 h 51 min
Bit rate : 5 b/s
Count of elements : 148
Stream size : 4.64 KiB (0%)
Title : Forced
Language : Ukrainian
Default : Yes
Forced : Yes

Text #2
ID : 5
Format : UTF-8
Codec ID : S_TEXT/UTF8
Codec ID/Info : UTF-8 Plain Text
Duration : 1 h 55 min
Bit rate : 103 b/s
Count of elements : 1588
Stream size : 87.6 KiB (0%)
Title : Full
Language : Ukrainian
Default : No
Forced : No

Text #3
ID : 6
Format : UTF-8
Codec ID : S_TEXT/UTF8
Codec ID/Info : UTF-8 Plain Text
Duration : 1 h 55 min
Bit rate : 65 b/s
Count of elements : 1440
Stream size : 55.2 KiB (0%)
Title : Full
Language : English
Default : No
Forced : No
Скріншоти




Джерело: &
Особиста оцінка: 8 - мені сподобалося


Золотий реліз (завантажене не впливає на рейтинг)
 Трекер:    Зареєстрований   

Завантажити / скачати мультфільм українською



відео для новачків



 Зареєстрований:   2017-11-10 17:04
 Розмір:   20.03 GB 
 Оцінка мультфільму:   10/10 (Голосів: 9)
   
Інші релізи
   Тачки / Cars [Open Matte] (2006) 1080p Ukr/Eng | Sub Ukr/Eng sergiyko.5  11 / 0   5.76 GB   2017-08-16 15:40 
   Тачки [повноекранна версія] / Cars [Open Matte] (2006) Ukr/Eng | Sub Ukr/Eng omm  11 / 2   2.55 GB   2017-06-19 10:08 
   Тачки / Cars (2006) arabon3  37 / 0   1.44 GB   2011-11-09 23:17 
   Тачки / Cars (2006) 1080p-mini Zeus62  13 / 0   4.24 GB   2011-04-05 13:28 
   Тачки / Cars (2006) 1080p Ukr/Eng | Sub Ukr/Eng SainTManiac  18 / 0   7.42 GB   2010-01-13 10:39 
Ваш часовий пояс: GMT + 2 Години

Нова тема   Відповісти