Листоноша Пет / Postman Pat: The Movie (2014) Remux 1080p Ukr/Eng | Sub Eng

Нові коментарі

Нова тема   Відповісти
Автор Повідомлення
sergiyko.5 
Забанено
Забанено


З нами з: 25.02.16
Востаннє: 29.10.20
Повідомлень: 3648

2017-11-09 20:41  
Листоноша Пет / Postman Pat: The Movie (2014) Remux 1080p Ukr/Eng | Sub Eng


Листоноша Пет / Postman Pat: The Movie (2014) Remux 1080p Ukr/Eng | Sub Eng

Жанр: пригоди, комедія
Країна: Велика Британія, США
Кінокомпанія: Classic Media, RGH Entertainment, Rubicon Group Holding
Режисер: Майкл Д’Іса-Хоган
Актори: Джим Бродбент, Джейн Карр, Робін Аткін Даунс, Сьюзен Дюрден, Грег Елліс, Руперт Грінт, Ден Хілдебранд, Ронан Кітінг, Стівен Менген, Парміндер К. Награ

Сюжет:
Скільки потрібно листонош щоб врятувати світ? Достатньо одного, якщо в нього напарник цікавий кіт, готовий до будь-яких пригод.




Тривалість: 01:27:17
Якість: Remux

Відео: кодек: розмір кадру: 1920х1080 бітрейт: 18000 кб/с
Аудіо # 1: мова: українська переклад: багатоголосий закадровий кодек: 2.0 бітрейт: 192 кб/с
Джерело озвучення:
Аудіо # 2: мова: англійська переклад: оригінал кодек: -HD Master Audio 5.1 бітрейт: 3840 кб/с
Аудіо # 3: мова: англійська переклад: оригінал кодек: 5.1 бітрейт: 640 кб/с
Субтитри: мова: англійська тип: програмні (м'які) формат: *.srt
Про файл:
General
Unique ID : 171891711803222160526715522967901677222 (0x815123B5F821CDD48F45E35953E1A6A6)
Complete name : D:\Torrents\MULT\Postman.Pat.The.Movie.2014.1080p.Remux.Ukr.Eng.
Format :
Format version : Version 4 / Version 2
File size : 13.9 GiB
Duration : 1 h 27 min
Overall bit rate mode : Variable
Overall bit rate : 22.8 Mb/s
Movie name : Postman Pat The Movie 2014 1080p Remux by sergiyko
Encoded date : UTC 2017-11-09 17:38:02
Writing application : v17.0.0 ('Be Ur Friend') 64-bit
Writing library : libebml v1.3.5 + v1.4.8
Cover : Yes
Attachments : cover.jpg

Video
ID : 1
Format : AVC
Format/Info : Advanced Video Codec
Format profile : [email protected]
Format settings, CABAC : Yes
Format settings, RefFrames : 4 frames
Codec ID : V_MPEG4/ISO/AVC
Duration : 1 h 27 min
Bit rate mode : Variable
Bit rate : 18.1 Mb/s
Maximum bit rate : 25.0 Mb/s
Width : 1 920 pixels
Height : 1 080 pixels
Display aspect ratio : 16:9
Frame rate mode : Constant
Frame rate : 23.976 (24000/1001) FPS
Standard : NTSC
Color space : YUV
Chroma subsampling : 4:2:0
Bit depth : 8 bits
Scan type : Progressive
Bits/(Pixel*Frame) : 0.363
Stream size : 11.0 GiB (79%)
Title : Postman Pat The Movie 2014 1080p
Language : English
Default : Yes
Forced : No
Color range : Limited
Color primaries : BT.709
Transfer characteristics : BT.709
Matrix coefficients : BT.709

Audio #1
ID : 2
Format : AC-3
Format/Info : Audio Coding 3
Format settings, Endianness : Big
Codec ID : A_AC3
Duration : 1 h 27 min
Bit rate mode : Constant
Bit rate : 192 kb/s
Channel(s) : 2 channels
Channel positions : Front: L R
Sampling rate : 48.0 kHz
Frame rate : 31.250 FPS (1536 SPF)
Bit depth : 16 bits
Compression mode : Lossy
Stream size : 120 MiB (1%)
Title : MOV | ТЕТ
Language : Ukrainian
Service kind : Complete Main
Default : Yes
Forced : Yes

Audio #2
ID : 3
Format :
Format/Info : Digital Theater Systems
Format profile : MA / Core
Mode : 16
Format settings, Endianness : Big
Codec ID : A_DTS
Duration : 1 h 27 min
Bit rate mode : Variable / Constant
Bit rate : 3 840 kb/s / 1 509 kb/s
Channel(s) : 6 channels
Channel positions : Front: L C R, Side: L R, LFE
Sampling rate : 48.0 kHz
Frame rate : 93.750 FPS (512 SPF)
Bit depth : 24 bits
Compression mode : Lossless / Lossy
Stream size : 2.35 GiB (17%)
Title : -HD Master Audio
Language : English
Default : No
Forced : No

Audio #3
ID : 4
Format : AC-3
Format/Info : Audio Coding 3
Format settings, Endianness : Big
Codec ID : A_AC3
Duration : 1 h 27 min
Bit rate mode : Constant
Bit rate : 640 kb/s
Channel(s) : 6 channels
Channel positions : Front: L C R, Side: L R, LFE
Sampling rate : 48.0 kHz
Frame rate : 31.250 FPS (1536 SPF)
Bit depth : 16 bits
Compression mode : Lossy
Stream size : 400 MiB (3%)
Title : DD5.1 Original
Language : English
Service kind : Complete Main
Default : No
Forced : No

Text
ID : 5
Format : UTF-8
Codec ID : S_TEXT/UTF8
Codec ID/Info : UTF-8 Plain Text
Duration : 1 h 19 min
Bit rate : 76 b/s
Count of elements : 1277
Stream size : 44.2 KiB (0%)
Language : English
Default : No
Forced : No

Menu
00:00:00.000 : en:00:00:00.000
00:07:45.382 : en:00:07:45.382
00:15:45.611 : en:00:15:45.611
00:20:58.215 : en:00:20:58.215
00:28:53.815 : en:00:28:53.815
00:36:51.000 : en:00:36:51.000
00:40:29.469 : en:00:40:29.469
00:45:10.583 : en:00:45:10.583
00:53:11.647 : en:00:53:11.647
01:02:30.205 : en:01:02:30.205
01:11:27.241 : en:01:11:27.241
01:21:12.201 : en:01:21:12.201
Скріншоти:


Після 5 завантаживших, файл видалю, критично не вистачає місця для зберігання відеоконтента.


Золотий реліз (завантажене не впливає на рейтинг)
 Трекер:    Зареєстрований   

Завантажити / скачати мультфільм українською



відео для новачків



 Зареєстрований:   2017-11-09 20:41
 Розмір:   13.87 GB 
 Оцінка мультфільму:   10/10 (Голосів: 2)
   
Інші релізи
Ваш часовий пояс: GMT + 2 Години

Нова тема   Відповісти