Емоджі Муві / The Emoji Movie (2017) 1080p Ukr/Eng | Sub Ukr/Eng

Нові коментарі

Нова тема   Відповісти
Автор Повідомлення
Anonymous 







2017-11-09 15:35  
Емоджі Муві / The Emoji Movie (2017) 1080p Ukr/Eng | Sub Ukr/Eng

Альтернативні постери











Жанр: анімація, фантастика, сімейний, комедія, пригодницький
Країна: США



Кінокомпанія: Columbia Pictures, LStar Capital, Sony Pictures Animation
Режисер: Ентоні Леондіс / Tony Leondis
Ролі озвучують: ТіДжей Міллер / T.J. Miller, Джеймс Корден / James Corden, Анна Фаріс / Anna Faris, Майя Рудольф / Maya Rudolph, Стівен Райт / Steven Wright, Дженніфер Кулідж / Jennifer Coolidge, Патрік Стюарт / Patrick Stewart, Крістіна Агілера / Christina Aguilera та інші

Сюжет:
У кожному смартфоні існує приховане місто, де живуть всі емоджі — СМСковіль. Дай п’ять, Закоханий котик чи Ану відвали — вони нереально круто передають наші емоції! Нова анімаційна комедія розповість історію Геника — унікального емоджі, який повинен виконати своє призначення у різних додатках смартфона. Та коли настане велика халепа, чи зможе Геник врятувати СМСковіль і всіх його мешканців?
Офіційні українські трейлери:








Рейтинг MPAA: PG - рекомендується присутність батьків
Вікова категорія: 6+
Тривалість: 01:26:22
Якість: 1080p

Відео:
кодек:
розмір кадру: 1920х800
бітрейт: 12,4 Мб/с

Аудіо # 1:
мова: українська
переклад: професійний дубльований
кодек: 5.1
бітрейт: 640 кб/с
Інформація про озвучення
Ролі озвучили:
Батько Геника - (Mel Meh, Стівен Райт / Steven Wright) - Євген Малуха

Дай п’ять - (Hi-5, Джеймс Корден / James Corden) - Назар Задніпровський

Смайла - Оля Полякова


бармен "троянський кінь" - Антон Савлєпав


Кулак - Андрєй Трушковскій


Cat Heart Eyes - Тімошенко


імовірно, дубльовано студією LeDoyen
Аудіо # 2:
мова: англійська
переклад: оригінал
кодек: 5.1
бітрейт: 448 кб/с

Субтитри # 1:
мова: українська (повні)
тип: програмні (м'які)
формат: *.srt

Субтитри # 2-3:
мова: англійська (повні, SDH)
тип: програмні (м'які)
формат: *.srt

Збережено оригінальні розділи, як на Blu-ray
Info
Код:
Complete name               : The Emoji Movie (2017) [Ukr,Eng sub.Ukr,Eng] 1080p [Hurtom].
Format                      :
Format version              : Version 4 / Version 2
File size                   : 8.14 GiB
Duration                    : 1 h 26 min
Overall bit rate            : 13.5 Mb/s
Movie name                  : Емоджі Муві / The Emoji Movie (2017) [Ukr,Eng sub.Ukr,Eng] 1080p [Hurtom]
Released date               : 2017
Cover                       : Yes
Comment                     : http://www.imdb.com/title/tt4877122/
Attachments                 : cover.jpg
ARTIST                      : ТіДжей Міллер / T.J. Miller, Джеймс Корден / James Corden, Анна Фаріс / Anna Faris, Майя Рудольф / Maya Rudolph, Стівен Райт / Steven Wright, Дженніфер Кулідж / Jennifer Coolidge, Патрік Стюарт / Patrick Stewart, Крістіна Агілера / Christina Aguilera та інші
DIRECTOR                    : Ентоні Леондіс / Tony Leondis
GENRE                       : анімація, фантастика, сімейний, комедія, пригодницький
SYNOPSIS                    : У кожному смартфоні існує приховане місто, де живуть всі емоджі — СМСковіль. Дай п’ять, Закоханий котик чи Ану відвали — вони нереально круто передають наші емоції! Нова анімаційна комедія розповість історію Геника — унікального емоджі, який повинен виконати своє призначення у різних додатках смартфона. Та коли настане велика халепа, чи зможе Геник врятувати СМСковіль і всіх його мешканців?
Url                         : https://toloka.to/t85127

Video
ID                          : 1
Format                      : AVC
Format/Info                 : Advanced Video Codec
Format profile              : [email protected]
Format settings             : CABAC / 5 Ref Frames
Format settings, CABAC      : Yes
Format settings, ReFrames   : 5 frames
Codec ID                    : V_MPEG4/ISO/AVC
Duration                    : 1 h 26 min
Bit rate                    : 12.4 Mb/s
Width                       : 1 920 pixels
Height                      : 800 pixels
Display aspect ratio        : 2.40:1
Frame rate mode             : Constant
Frame rate                  : 23.976 (24000/1001) FPS
Color space                 : YUV
Chroma subsampling          : 4:2:0
Bit depth                   : 8 bits
Scan type                   : Progressive
Bits/(Pixel*Frame)          : 0.337
Stream size                 : 7.48 GiB (92%)
Title                       : Емоджі Муві / The Emoji Movie (2017) 1080p Ukr/Eng | Sub Ukr/Eng
Writing library             : core 142 r2431+42 c69a006 tMod [[email protected]:2:0 X86]
Encoding settings           : cabac=1 / ref=5 / deblock=1:-3:-3 / analyse=0x3:0x133 / me=umh / subme=10 / psy=1 / fade_compensate=0.00 / psy_rd=1.00:0.00 / mixed_ref=1 / me_range=48 / chroma_me=1 / trellis=2 / 8x8dct=1 / cqm=0 / deadzone=21,11 / fast_pskip=0 / chroma_qp_offset=-2 / threads=12 / lookahead_threads=1 / sliced_threads=0 / nr=0 / decimate=0 / interlaced=0 / bluray_compat=0 / constrained_intra=0 / fgo=0 / bframes=6 / b_pyramid=2 / b_adapt=2 / b_bias=0 / direct=3 / weightb=0 / open_gop=0 / weightp=2 / keyint=230 / keyint_min=22 / scenecut=40 / intra_refresh=0 / rc_lookahead=60 / rc=2pass / mbtree=1 / bitrate=12400 / ratetol=1.0 / qcomp=0.60 / qpmin=0:0:0 / qpmax=69:69:69 / qpstep=4 / cplxblur=20.0 / qblur=0.5 / vbv_maxrate=50000 / vbv_bufsize=50000 / nal_hrd=none / filler=0 / ip_ratio=1.40 / aq=1:1.00 / aq-sensitivity=10.00 / aq-factor=1.00:1.00:1.00 / aq2=0 / aq3=0
Language                    : English
Default                     : Yes
Forced                      : No

Audio #1
ID                          : 2
Format                      : AC-3
Format/Info                 : Audio Coding 3
Codec ID                    : A_AC3
Duration                    : 1 h 26 min
Bit rate mode               : Constant
Bit rate                    : 640 kb/s
Channel(s)                  : 6 channels
Channel positions           : Front: L C R, Side: L R, LFE
Sampling rate               : 48.0 kHz
Frame rate                  : 31.250 FPS (1536 SPF)
Bit depth                   : 16 bits
Compression mode            : Lossy
Stream size                 : 395 MiB (5%)
Title                       : Dub [Blu-ray CEE] 5.1 640 Kbps
Language                    : Ukrainian
Service kind                : Complete Main
Default                     : Yes
Forced                      : Yes

Audio #2
ID                          : 3
Format                      : AC-3
Format/Info                 : Audio Coding 3
Codec ID                    : A_AC3
Duration                    : 1 h 26 min
Bit rate mode               : Constant
Bit rate                    : 448 kb/s
Channel(s)                  : 6 channels
Channel positions           : Front: L C R, Side: L R, LFE
Sampling rate               : 48.0 kHz
Frame rate                  : 31.250 FPS (1536 SPF)
Bit depth                   : 16 bits
Compression mode            : Lossy
Stream size                 : 277 MiB (3%)
Title                       : Original, 5.1 448 Kbps
Language                    : English
Service kind                : Complete Main
Default                     : No
Forced                      : No

Text #1
ID                          : 4
Format                      : UTF-8
Codec ID                    : S_TEXT/UTF8
Codec ID/Info               : UTF-8 Plain Text
Duration                    : 1 h 19 min
Bit rate                    : 103 b/s
Count of elements           : 1232
Stream size                 : 60.2 KiB (0%)
Title                       : Ukr full
Language                    : Ukrainian
Default                     : No
Forced                      : No

Text #2
ID                          : 5
Format                      : UTF-8
Codec ID                    : S_TEXT/UTF8
Codec ID/Info               : UTF-8 Plain Text
Duration                    : 1 h 19 min
Bit rate                    : 64 b/s
Count of elements           : 1224
Stream size                 : 37.6 KiB (0%)
Title                       : Eng Full
Language                    : English
Default                     : No
Forced                      : No

Text #3
ID                          : 6
Format                      : UTF-8
Codec ID                    : S_TEXT/UTF8
Codec ID/Info               : UTF-8 Plain Text
Duration                    : 1 h 19 min
Bit rate                    : 84 b/s
Count of elements           : 1656
Stream size                 : 49.0 KiB (0%)
Title                       : Eng SDH
Language                    : English
Default                     : No
Forced                      : No

Menu
00:00:00.000                : en:Chapter 01
00:05:12.478                : en:Chapter 02
00:11:38.531                : en:Chapter 03
00:15:49.406                : en:Chapter 04
00:22:24.051                : en:Chapter 05
00:26:48.356                : en:Chapter 06
00:32:11.262                : en:Chapter 07
00:39:15.186                : en:Chapter 08
00:44:16.487                : en:Chapter 09
00:48:42.753                : en:Chapter 10
00:53:07.392                : en:Chapter 11
00:58:19.370                : en:Chapter 12
01:02:35.752                : en:Chapter 13
01:07:18.784                : en:Chapter 14
01:11:54.893                : en:Chapter 15
01:16:05.394                : en:Chapter 16


Джерело: &

[26.01.2018] реліз оновлено: замінено українську доріжку зі стерео на 5.1


 Трекер:    Зареєстрований   

Завантажити / скачати мультфільм українською



відео для новачків



 Зареєстрований:   2018-01-26 19:37
 Розмір:   8.14 GB 
 Оцінка мультфільму:   7.1/10 (Голосів: 48)
   
Інші релізи
   Емоджі Муві / The Emoji Movie (2017) Electroz  14 / 0   1.46 GB   2018-01-26 20:08 
   Емоджі Муві / The Emoji Movie (2017) AVC Ukr/Eng | Sub Ukr/Eng 11FrYkT  3 / 0   1.78 GB   2018-01-26 20:03 
   Емоджі Муві / The Emoji Movie (2017) 720p Ukr/Eng | Sub Ukr/Eng 11FrYkT  4 / 0   4.07 GB   2018-01-26 18:20 
   Емоджі Муві / The Emoji Movie (2017) Remux 1080p Ukr/Eng | Sub Ukr/Eng 11FrYkT  2 / 0   16.56 GB   2018-01-26 18:15 
[email protected] 
Відео Гуртом - підтримка та поширення
Відео Гуртом - підтримка та поширення


З нами з: 16.06.12
Востаннє: 24.02.21
Повідомлень: 1425

2017-11-09 20:10  
Навіщо то лайно викладати?
Подивіться огляд Тайлера, все зрозумієте.
[youtube]https://youtube.com/watch?feature=youtu.be&v=iHlEW1srbxk[/youtube]

Ivanpg 
Новенький


З нами з: 24.09.14
Востаннє: 14.02.21
Повідомлень: 22

2017-11-09 20:43  
Мультфільм класний. Український переклад якісний. Огляд робив якийсь "деградуючий придурок".Гнути мати на ютуб каналі може кожен недоумок.
Сценарій мультфільму дуже класний дивлячись на тему. Що б видати гарну історію з нічого, треба дуже важко попрацювати.

yurdmitriy 
Новенький


З нами з: 17.06.11
Востаннє: 28.01.21
Повідомлень: 3

2017-11-10 20:21  
Дякую! (помагаю з роздачею)
Arx1meD_CrackeR 
Частий відвідувач


З нами з: 17.04.13
Востаннє: 21.02.21
Повідомлень: 36

2017-11-10 21:50  
скажіть чи буде звук 5.1 ???
dilnix 
Поважний учасник


З нами з: 22.07.12
Востаннє: 20.02.21
Повідомлень: 191

2017-11-13 13:11  
[email protected] написано:

Навіщо то лайно викладати?
Подивіться огляд Тайлера, все зрозумієте.

Теж не вважаю цей цілком дитячий мульт поганим. Так, він не є шедевром (як на мене), і є досить банальний, але моїй 6-річній дитині він був цікавий і по віку.
Звісно, більш дорослим дітлахам треба вже дивитись щось більш насичене та корисніше. Я завжди вважав що мітки вікової категорії та MPAA є значно завищеними.

Anonymous 







2017-11-14 08:20  
Нормальний мульт для дітей, 6/10. Чудовий український дубляж з Малухою та Задніпровським.
Anonymous 







2018-01-26 19:39  
Реліз оновлено: замінено українську доріжку зі стерео на 5.1

Додано через 51 секунду:

"золото" на тиждень

ridley 
Частий відвідувач


З нами з: 20.01.18
Востаннє: 21.06.18
Повідомлень: 28

2018-01-26 19:59  
Після номінації на Золоту малину треба дивитись обов'язково Wide grin
Electroz 
Відео Гуртом - підтримка та поширення
Відео Гуртом - підтримка та поширення


З нами з: 18.09.14
Востаннє: 25.02.21
Повідомлень: 4331

2018-01-26 21:06  
Anonymous написано:
імовірно, дубльовано студією LeDoyen

Так і є. Повну інформацію про дубляж можна знайти на блюрі.

Anonymous 







2018-01-26 21:10  
Electroz написано:
можна знайти на блюрі.

де саме? у аудіодоріжці немає.

Sacramental 
Свій


З нами з: 24.11.16
Востаннє: 24.02.21
Повідомлень: 55

2018-01-29 13:25  
Навіщо писати, що поганий??? У кожного продукту свій споживач))) Воно вам просто не подобається... Але це не робить його поганим)))
Ваш часовий пояс: GMT + 2 Години

Нова тема   Відповісти