Рок Дог / Rock Dog (2016)

Нові коментарі

Нова тема   Відповісти
Автор Повідомлення
Anonymous 







2017-11-09 09:04  
Рок Дог / Rock Dog (2016)

Рок Дог / Rock Dog (2016)


Жанр: анімація, комедія, музичний, пригодницький, сімейний
Країна: США, Китай



Кінокомпанія: Dream Factory Group
Режисер: Еш Браннон / Ash Brannon
Ролі озвучили: Люк Вілсон / Luke Wilson, Едді Іззард / Eddie Izzard, Дж. К. Сіммонс / J.K. Simmons, Мей Вітман / Mae Whitman, Хорхе Гарсія / Jorge Garcia, Метт Діллон / Matt Dillon, Сем Елліотт / Sam Elliott, Еш Браннон / Ash Brannon та інші

Сюжет:
Юний тибетський мастиф на ім'я Боуді з дитинства знав, що має продовжити справу свого батька. З покоління в покоління чоловіки охороняють село, розташоване високо в горах, від набігів вовків. Весь свій час Боуді мусить присвячувати тренуванням і відточуванню майстерності. А як інакше, якщо попереду на нього чекає не одна битва з вовками. Але замість цього всі думки хлопця займає музика. Бачачи завзяття сина, батько дозволяє хлопцеві поїхати в місто і спробувати себе в шоу-бізнесі. Вершина мрій Боуді – стати учнем рок-зірки світової величини, перського кота на ім'я Енгус. Ось тільки зустрітися з самим Енгусом виявляється складніше, ніж міг припустити Боуді. Хоча хтозна, адже талант хлопця видно неозброєним оком.
Офіційний український трейлер:

Рейтинг MPAA: PG - рекомендується присутність батьків
Вікова категорія: 6+
Тривалість: 01:29:56
Якість:
Відео:
кодек:
розмір кадру: 688х384
бітрейт: 1868 кб/с

Аудіо:
мова: українська
переклад: професійний дубльований | студія ААА-sound
кодек: 2.0
бітрейт: 192 кб/с
Інформація про дубляж
Переклад: Юлія Когут
Режисер дубляжу: Олександр Єфімов
Ролі дублювали: Павло Скороходько, Дмитро Завадський, Катерина Брайковська, Юрій Ребрик, Андрій Альохін, Ярослав Чорненький, Анатолій Зіновенко, Кирило Нікітенко та інші.
Фільм дубльовано студією ААА-sound у 2017 році на замовлення компанії Вольга Україна.
Info
Код:
General
Complete name               : Rock Dog (2016) [Ukr] [Hurtom].avi
Format                      : AVI
Format/Info                 : Audio Video Interleave
File size                   : 1.30 GiB
Duration                    : 1 h 29 min
Overall bit rate            : 2 069 kb/s
Movie name                  : Рок Дог / Rock Dog (2016) [Ukr] [Hurtom]
Genre                       : анімаця, комедія, музичний, пригодницький, сімейний
Writing application         : VirtualDubModUkr 1.5.10.2 (build 2542/release)
Writing library             : VirtualDubMod build 2542/release
Comment                     : https://toloka.to/t85121

Video
ID                          : 0
Format                      : MPEG-4 Visual
Format profile              : Advanced [email protected]
Format settings             : BVOP1 / Custom Matrix
Format settings, BVOP       : 1
Format settings, QPel       : No
Format settings, GMC        : No warppoints
Format settings, Matrix     : Custom
Codec ID                    :
Codec ID/Hint               :
Duration                    : 1 h 29 min
Bit rate                    : 1 868 kb/s
Width                       : 688 pixels
Height                      : 384 pixels
Display aspect ratio        : 16:9
Frame rate                  : 23.976 (24000/1001) FPS
Color space                 : YUV
Chroma subsampling          : 4:2:0
Bit depth                   : 8 bits
Scan type                   : Progressive
Compression mode            : Lossy
Bits/(Pixel*Frame)          : 0.295
Stream size                 : 1.17 GiB (90%)
Writing library             : 73

Audio
ID                          : 1
Format                      : AC-3
Format/Info                 : Audio Coding 3
Format settings, Endianness : Big
Codec ID                    : 2000
Duration                    : 1 h 29 min
Bit rate mode               : Constant
Bit rate                    : 192 kb/s
Channel(s)                  : 2 channels
Channel positions           : Front: L R
Sampling rate               : 48.0 kHz
Frame rate                  : 31.250 FPS (1536 SPF)
Bit depth                   : 16 bits
Compression mode            : Lossy
Stream size                 : 124 MiB (9%)
Alignment                   : Split accross interleaves
Interleave, duration        : 42  ms (1.00 video frame)
Interleave, preload duratio : 500  ms
Title                       : Ukr Dub [AAA-sound, Megogo]
Service kind                : Complete Main


Джерело: &
Подяка Electroz'у за українську доріжку


 Трекер:    Зареєстрований   

Завантажити / скачати мультфільм українською



відео для новачків



 Зареєстрований:   2017-11-09 09:13
 Розмір:   1.3 GB 
 Оцінка мультфільму:   7/10 (Голосів: 40)
   
Інші релізи
   Рок Дог / Rock Dog (2016) 720p 2xUkr/Eng | sub Eng sergiyko.5  9 / 0   2.88 GB   2017-11-15 23:49 
   Рок Дог / Rock Dog (2016) AVC 2xUkr/Eng sergiyko.5  6 / 0   2.22 GB   2017-11-15 23:49 
   Рок Дог / Rock Dog (2016) 1080p Ukr/Eng | Sub Eng Electroz  22 / 0   9.43 GB   2017-06-25 23:35 
demetrius52 
Свій


З нами з: 02.04.17
Востаннє: 23.02.18
Повідомлень: 135

2017-11-12 23:08  
Anonymous
український трейлер
https://www.youtube.com/watch?v=ELXAMFSe-DU

Ergo Proxy 
Частий відвідувач


З нами з: 22.05.12
Востаннє: 21.02.18
Повідомлень: 46

2017-11-13 23:23  
як мульт?)
vovanduk 
Новенький


З нами з: 20.11.09
Востаннє: 21.02.18
Повідомлень: 4

2017-12-10 22:09  
Позитивний мульт!
Ваш часовий пояс: GMT + 2 Години

Нова тема   Відповісти