Ромс - Академія (2007) [] | Hip-hop

Нові коментарі

Нова тема   Відповісти
Останній раз роздавалося sergiy-ssv (2019-01-17)
Автор Повідомлення
Anonymous 







2017-11-08 18:35  
Ромс - Академія (2007) [] | Hip-hop

Ромс - Академія (2007) [] | Hip-hop


Стиль: Hip-Hop
Країна, місто: Україна, ?
Видавець: Монолит рекордс
Виконавці:
Бабенко Роман
Бек-вокал - Влада V.I.P., Олена Матвієнко, Тетяна Бабенко
Пісні:
    01 Академiя Ромса
    02 Дощ
    03 Уматурман
    04 Хай буде так
    05 Натаха
    06 Останнiй подарунок
    07 Доля feat. A-23
    08 Листи
    09 Крем
    10 Едем feat. Влада V.J.P.
    11 Почуття
    12 Спогади
    13 Лiто
    14 Осiнь
    15 Дарина
    16 Героям
    17 Латиноамериканка (bonus track)
log
Exact Audio Copy V1.0 beta 3 from 29. August 2011

Отчёт EAC об извлечении, выполненном 13. июля 2015, 13:27

Ромс / Академiя

Дисковод: HL-DT-STDVDRAM GU61N Adapter: 1 ID: 0

Режим чтения : Достоверность
Использование точного потока : Да
Отключение кэша аудио : Да
Использование указателей C2 : Нет

Коррекция смещения при чтении : 6
Способность читать области Lead-in и Lead-out : Нет
Заполнение пропущенных сэмплов тишиной : Да
Удаление блоков с тишиной в начале и конце : Нет
При вычислениях CRC использовались нулевые сэмплы : Да
Интерфейс : Встроенный Win32-интерфейс для Win NT/2000
Обработка зазоров : Добавлено к предыдущему треку

Выходной формат : Пользовательский кодировщик
Выбранный битрейт : 128 kBit/s
Качество : Высокий
Добавление ID3-тега : Нет
Утилита сжатия : C:\Program Files\Exact Audio Copy\\.exe
Дополнительные параметры : -V -8 -T "Genre=%genre%" -T "Artist=%artist%" -T "Title=%title%" -T "Album=%albumtitle%" -T "Date=%year%" -T "Tracknumber=%tracknr%" %source%

TOC извлечённого CD

Трек | Старт | Длительность | Начальный сектор | Конечный сектор
---------------------------------------------------------------------
1 | 0:00.00 | 3:26.56 | 0 | 15505
2 | 3:26.56 | 3:25.57 | 15506 | 30937
3 | 6:52.38 | 3:58.59 | 30938 | 48846
4 | 10:51.22 | 4:39.13 | 48847 | 69784
5 | 15:30.35 | 3:27.18 | 69785 | 85327
6 | 18:57.53 | 4:01.00 | 85328 | 103402
7 | 22:58.53 | 3:18.00 | 103403 | 118252
8 | 26:16.53 | 3:59.51 | 118253 | 136228
9 | 30:16.29 | 3:35.45 | 136229 | 152398
10 | 33:51.74 | 3:14.24 | 152399 | 166972
11 | 37:06.23 | 3:45.03 | 166973 | 183850
12 | 40:51.26 | 3:08.28 | 183851 | 197978
13 | 43:59.54 | 4:31.19 | 197979 | 218322
14 | 48:30.73 | 3:57.57 | 218323 | 236154
15 | 52:28.55 | 4:30.36 | 236155 | 256440
16 | 56:59.16 | 3:54.53 | 256441 | 274043
17 | 60:53.69 | 3:09.00 | 274044 | 288218

Трек 1

Имя файла C:\Users\Юрий\Desktop\Ромс - Академiя (2007, B&W Music, MT 715391-587-1)\01 Академiя Ромса.wav

Длина предзазора 0:00:02.00

Пиковый уровень 90.0 %
Скорость извлечения 2.5 X
Качество трека 100.0 %
CRC теста C911B262
CRC копии C911B262
Трек не обнаружен в базе AccurateRip
Копирование... OK

Трек 2

Имя файла C:\Users\Юрий\Desktop\Ромс - Академiя (2007, B&W Music, MT 715391-587-1)\02 Дощ.wav

Длина предзазора 0:00:02.00

Пиковый уровень 99.0 %
Скорость извлечения 2.8 X
Качество трека 100.0 %
CRC теста 2399CA55
CRC копии 2399CA55
Трек не обнаружен в базе AccurateRip
Копирование... OK

Трек 3

Имя файла C:\Users\Юрий\Desktop\Ромс - Академiя (2007, B&W Music, MT 715391-587-1)\03 Уматурман.wav

Длина предзазора 0:00:02.00

Пиковый уровень 93.0 %
Скорость извлечения 3.1 X
Качество трека 100.0 %
CRC теста E3CB82A8
CRC копии E3CB82A8
Трек не обнаружен в базе AccurateRip
Копирование... OK

Трек 4

Имя файла C:\Users\Юрий\Desktop\Ромс - Академiя (2007, B&W Music, MT 715391-587-1)\04 Хай буде так.wav

Длина предзазора 0:00:02.00

Пиковый уровень 87.0 %
Скорость извлечения 3.4 X
Качество трека 100.0 %
CRC теста 2B8B3DC2
CRC копии 2B8B3DC2
Трек не обнаружен в базе AccurateRip
Копирование... OK

Трек 5

Имя файла C:\Users\Юрий\Desktop\Ромс - Академiя (2007, B&W Music, MT 715391-587-1)\05 Натаха.wav

Длина предзазора 0:00:02.00

Пиковый уровень 90.0 %
Скорость извлечения 3.5 X
Качество трека 100.0 %
CRC теста F0B1CA00
CRC копии F0B1CA00
Трек не обнаружен в базе AccurateRip
Копирование... OK

Трек 6

Имя файла C:\Users\Юрий\Desktop\Ромс - Академiя (2007, B&W Music, MT 715391-587-1)\06 Останнiй подарунок.wav

Длина предзазора 0:00:02.00

Пиковый уровень 90.0 %
Скорость извлечения 3.4 X
Качество трека 99.9 %
CRC теста 4469CC40
CRC копии 4469CC40
Трек не обнаружен в базе AccurateRip
Копирование... OK

Трек 7

Имя файла C:\Users\Юрий\Desktop\Ромс - Академiя (2007, B&W Music, MT 715391-587-1)\07 Доля feat. A-23.wav

Длина предзазора 0:00:02.00

Пиковый уровень 90.0 %
Скорость извлечения 1.7 X
Качество трека 100.0 %
CRC теста 4A4AD163
CRC копии 4A4AD163
Трек не обнаружен в базе AccurateRip
Копирование... OK

Трек 8

Имя файла C:\Users\Юрий\Desktop\Ромс - Академiя (2007, B&W Music, MT 715391-587-1)\08 Листи.wav

Длина предзазора 0:00:02.00

Пиковый уровень 98.9 %
Скорость извлечения 1.6 X
Качество трека 99.9 %
CRC теста EE39725A
CRC копии EE39725A
Трек не обнаружен в базе AccurateRip
Копирование... OK

Трек 9

Имя файла C:\Users\Юрий\Desktop\Ромс - Академiя (2007, B&W Music, MT 715391-587-1)\09 Крем.wav

Длина предзазора 0:00:02.00

Пиковый уровень 96.5 %
Скорость извлечения 1.8 X
Качество трека 100.0 %
CRC теста 0FCC8544
CRC копии 0FCC8544
Трек не обнаружен в базе AccurateRip
Копирование... OK

Трек 10

Имя файла C:\Users\Юрий\Desktop\Ромс - Академiя (2007, B&W Music, MT 715391-587-1)\10 Едем feat. Влада V.J.P..wav

Длина предзазора 0:00:02.00

Пиковый уровень 95.0 %
Скорость извлечения 1.9 X
Качество трека 100.0 %
CRC теста FBCC0BFA
CRC копии FBCC0BFA
Трек не обнаружен в базе AccurateRip
Копирование... OK

Трек 11

Имя файла C:\Users\Юрий\Desktop\Ромс - Академiя (2007, B&W Music, MT 715391-587-1)\11 Почуття.wav

Длина предзазора 0:00:02.00

Пиковый уровень 87.0 %
Скорость извлечения 2.0 X
Качество трека 100.0 %
CRC теста F0756B50
CRC копии F0756B50
Трек не обнаружен в базе AccurateRip
Копирование... OK

Трек 12

Имя файла C:\Users\Юрий\Desktop\Ромс - Академiя (2007, B&W Music, MT 715391-587-1)\12 Спогади.wav

Длина предзазора 0:00:02.00

Пиковый уровень 93.0 %
Скорость извлечения 2.0 X
Качество трека 100.0 %
CRC теста 8548E24F
CRC копии 8548E24F
Трек не обнаружен в базе AccurateRip
Копирование... OK

Трек 13

Имя файла C:\Users\Юрий\Desktop\Ромс - Академiя (2007, B&W Music, MT 715391-587-1)\13 Лiто.wav

Длина предзазора 0:00:02.00

Пиковый уровень 96.5 %
Скорость извлечения 1.9 X
Качество трека 99.9 %
CRC теста 0C21DB50
CRC копии 0C21DB50
Трек не обнаружен в базе AccurateRip
Копирование... OK

Трек 14

Имя файла C:\Users\Юрий\Desktop\Ромс - Академiя (2007, B&W Music, MT 715391-587-1)\14 Осiнь.wav

Длина предзазора 0:00:02.00

Пиковый уровень 96.5 %
Скорость извлечения 2.2 X
Качество трека 100.0 %
CRC теста 99A9C1B6
CRC копии 99A9C1B6
Трек не обнаружен в базе AccurateRip
Копирование... OK

Трек 15

Имя файла C:\Users\Юрий\Desktop\Ромс - Академiя (2007, B&W Music, MT 715391-587-1)\15 Дарина.wav

Длина предзазора 0:00:02.00

Пиковый уровень 85.0 %
Скорость извлечения 2.3 X
Качество трека 100.0 %
CRC теста ED87E33E
CRC копии ED87E33E
Трек не обнаружен в базе AccurateRip
Копирование... OK

Трек 16

Имя файла C:\Users\Юрий\Desktop\Ромс - Академiя (2007, B&W Music, MT 715391-587-1)\16 Героям.wav

Длина предзазора 0:00:02.00

Пиковый уровень 90.0 %
Скорость извлечения 2.0 X
Качество трека 99.9 %
CRC теста 3578A913
CRC копии 3578A913
Трек не обнаружен в базе AccurateRip
Копирование... OK

Трек 17

Имя файла C:\Users\Юрий\Desktop\Ромс - Академiя (2007, B&W Music, MT 715391-587-1)\17 Латиноамериканка (bonus track).wav

Длина предзазора 0:00:02.00

Пиковый уровень 98.8 %
Скорость извлечения 2.3 X
Качество трека 100.0 %
CRC теста 1AC7B0A3
CRC копии 1AC7B0A3
Трек не обнаружен в базе AccurateRip
Копирование... OK

Ни одного трека нет в базе AccurateRip

Ошибок не произошло

Конец отчёта

==== Контрольная сумма отчёта 7B745A0A73E6AB89B266C3628C902FF63F21E634D395AF78B4D75C6FEA656EA1 ====
Тривалість: 01:04:03
Мова: українська
Аудіо-кодек:
Бітрейт: 905-1050 кб/с
Джерело: інтернет

Якщо Ви справді бажаєте підтримати українське - після прослуховування, якщо музика вам сподобалась,
придбайте ліцензійний диск.
Підтримаймо вітчизняних виконавців!


Фріліч (завантажене не впливає на рейтинг)
 Трекер:    Зареєстрований   

Завантажити / скачати українську музику



відео для новачків



 Зареєстрований:   2017-11-08 18:35
 Розмір:   484 MB 
 Оцінка музики:   3.1/10 (Голосів: 13)
   
VIKTOtor 
Свій


З нами з: 02.01.12
Востаннє: 14.01.19
Повідомлень: 138

2017-11-08 18:56  
місто Харків
Anonymous 







2017-11-08 20:13  
VIKTOtor написано:
місто Харків

це він http://starlife.com.ua/posts/pogib-kompozitor-roman-babenko-8524.html ?
дивно, в описі нічого не сказано, що він співав сам, тільки композитор і саунд-продюсер та ще й одні кацапомовні пісні, а тут повністю український альбом.... якось все заплутано

Ваш часовий пояс: GMT + 2 Години

Нова тема   Відповісти