Фрік Таун / Freaktown (Сезон 1) (2016) 720p

Нові коментарі

Нова тема   Відповісти
Останній раз роздавалося tiaro (2021-04-12)
Автор Повідомлення
sergiyko.5 
Забанено
Забанено


З нами з: 25.02.16
Востаннє: 29.10.20
Повідомлень: 3648

2017-11-07 23:23  
Фрік Таун / Freaktown (Сезон 1) (2016) 720p

Фрік Таун / Freaktown (Сезон 1) (2016) 720p

Жанр: пригоди
Країна: Канада, США
Режисер: Кріс Лабонте

Сюжет:
Кращі друзі Бен Бонс (скелет з душею) і Ленні (невимушений мутант богомола) живуть в «Фрік Тауні» - шаленому місці, де вітаються гулі, мутанти, невдахи і примхи будь-якого роду. Будь то серфінг на цунамі або кажан, що летить по місту, Бен і його приятелі знайдуть дивні пригоди в кожному болоті, каналізації та шламі!




Тривалість: 1/2 серія: 11:15 (цілком напівсерій: 52)

Якість:

Відео: кодек: розмір кадру: 1280x720 бітрейт: 2500 кб/с
Аудіо: мова: українська переклад: професійний дубльований кодек: MP2 2.0 бітрейт: 192 кб/с
Джерело озвучення:
Перелік серій
01а Злив-день
01b Принцеса і череп
02a Дзюрчання Тейлора солдата шпигуна
02b Пастка сну
03a Історія про шовковий зад
03b Битва подушок
04a Б-1000
04b Лорд М'якунчик прищавий
05а Створи Бена
05b Кістки Бена
06a М'язисте тіло Бена
06b Виклик
07a Криза Купідона
07b Побачення з небезпекою
08a Кумедна кістка
08b Псувальник басейної вечірки
09a Мрія кричати
09b Пухнасті справи
10а Пенсійна знижка
10b Пекельний
11a Нянька Бен
11b Блювррріто
12a Вирости фріка
12b Школа магії
13a Пацюк бажань
13b Дощ із кошенят
14a Фріки у космосі
14b Блискуча юшка
15a День Лосьмара
15b Чихачка
16a Монстр під ліжком
16b Принцеса Бларг-Бларг
17a Гороховий чих
17b Нервовий зрив Бу-Бу
18a Кокон Ленні
18b Фонтан дивацтв
19a Сонцекаліпсис
19b Втрачений ріг
20a Жахання
20b Бджолині справи
21a Підкорюй добротою
21b Матінка-природа
22a Солодкі авіалінії
22b Язик мій-ворог мій
23a Нове захоплення Бу- Бу
23b Нічні вогні
24a Свен і Кенні
24b Скелети-байкери
25a Погодний зомбі
25b Зубні ніндзя
26a Бруд між пальцями
26b Змагання кафе
Info
General
Unique ID : 212202957661054870915717161423743061719 (0x9FA4CD94565390A198CEBC4E00FD8ED7)
Complete name : E:\MULTFILMS\Freaktown S01 720p \Freaktown.S01E01a.Flush Fest.720p..
Format :
Format version : Version 2
File size : 215 MiB
Duration : 11 min 15 s
Overall bit rate : 2 665 kb/s
Encoded date : UTC 2017-11-04 12:43:24
Writing application : v7.8.0 ('River Man') 32bit built on Apr 3 2015 12:11:22
Writing library : libebml v1.3.1 + v1.4.2

Video
ID : 1
Format : AVC
Format/Info : Advanced Video Codec
Format profile : [email protected]
Format settings, CABAC : Yes
Format settings, RefFrames : 10 frames
Codec ID : V_MPEG4/ISO/AVC
Duration : 11 min 15 s
Bit rate : 2 420 kb/s
Width : 1 280 pixels
Height : 720 pixels
Display aspect ratio : 16:9
Frame rate mode : Constant
Frame rate : 25.000 FPS
Color space : YUV
Chroma subsampling : 4:2:0
Bit depth : 8 bits
Scan type : Progressive
Bits/(Pixel*Frame) : 0.105
Stream size : 195 MiB (91%)
Writing library : core 152 r2851 ba24899
Encoding settings : cabac=1 / ref=10 / deblock=1:-1:-1 / analyse=0x3:0x113 / me=umh / subme=9 / psy=1 / psy_rd=0.40:0.00 / mixed_ref=1 / me_range=24 / chroma_me=1 / trellis=2 / 8x8dct=1 / cqm=0 / deadzone=21,11 / fast_pskip=1 / chroma_qp_offset=-2 / threads=8 / lookahead_threads=1 / sliced_threads=0 / nr=0 / decimate=1 / interlaced=0 / bluray_compat=0 / constrained_intra=0 / bframes=8 / b_pyramid=2 / b_adapt=2 / b_bias=0 / direct=3 / weightb=1 / open_gop=0 / weightp=2 / keyint=250 / keyint_min=25 / scenecut=40 / intra_refresh=0 / rc_lookahead=60 / rc=crf / mbtree=1 / crf=17.0 / qcomp=0.70 / qpmin=8 / qpmax=56 / qpstep=4 / vbv_maxrate=14000 / vbv_bufsize=14000 / crf_max=0.0 / nal_hrd=none / filler=0 / ip_ratio=1.40 / aq=1:0.60
Default : Yes
Forced : No

Audio
ID : 2
Format : MPEG Audio
Format version : Version 1
Format profile : Layer 2
Codec ID : A_MPEG/L2
Codec ID/Hint : MP2
Duration : 11 min 15 s
Bit rate mode : Constant
Bit rate : 192 kb/s
Channel(s) : 2 channels
Sampling rate : 48.0 kHz
Compression mode : Lossy
Stream size : 15.5 MiB (7%)
Default : Yes
Forced : No
Скріншоти:




Автор запису/ріпу: sergiyko


Бронзовий реліз (на рейтинг впливає 75% завантаженого)
 Трекер:    Зареєстрований   

Завантажити / скачати мультфільм українською



відео для новачків



 Зареєстрований:   2018-01-09 15:01
 Розмір:   11.1 GB 
 Оцінка мультсеріалу:   7.4/10 (Голосів: 7)
   
sergiyko.5 
Забанено
Забанено


З нами з: 25.02.16
Востаннє: 29.10.20
Повідомлень: 3648

2017-11-12 10:15  
Додав серію 08a Кумедна кістка
sergiyko.5 
Забанено
Забанено


З нами з: 25.02.16
Востаннє: 29.10.20
Повідомлень: 3648

2017-11-23 11:33  
Додав 3 нових серії.
sergiyko.5 
Забанено
Забанено


З нами з: 25.02.16
Востаннє: 29.10.20
Повідомлень: 3648

2018-01-09 15:03  
Додав всі серії до повного сезону, приємного перегляду.
Ваш часовий пояс: GMT + 2 Години

Нова тема   Відповісти