Світанок планети мавп / Dawn of the Planet of the Apes (2014) Remux 1080p Ukr/Eng | Sub Ukr/Eng

Нові коментарі

Нова тема   Відповісти
Автор Повідомлення
Argentum 
VIP


З нами з: 25.09.11
Востаннє: 24.09.20
Повідомлень: 259

2017-11-07 17:21  
Світанок планети мавп / Dawn of the Planet of the Apes (2014) Remux 1080p Ukr/Eng | Sub Ukr/Eng

Світанок планети мавп / Dawn of the Planet of the Apes (2014) Remux 1080p Ukr/Eng | Sub Ukr/Eng


Жанр: фантастика, бойовик, пригодницький, драма
Країна: США



Кінокомпанія: Chernin Entertainment, 20th Century Fox
Режисер: Метт Рівз
Актори: Джейсон Кларк, Енді Серкіс, Ґері Олдмен, Джуді Грір, Кері Расселл

Сюжет:
Чисельність генетично модифікованих мавп, очолюваних Цезарем, продовжує збільшуватися, але мавпам погрожують люди, яким вдалося вижити під час жахливої ​​епідемії десятирічної давності. Спочатку між суперниками встановлюється крихкий мир, але він виявляється недовговічним. Мавпи і люди знаходяться на межі війни, в ході якої стане зрозуміло, хто з них в майбутньому стане безроздільно правити планетою.


Тривалість: 02:10:24
Якість: Remux
Відео:
кодек:
розмір кадру: 1920 х 1080
бітрейт: 22,2 Мб/с

Аудіо # 1:
мова: українська
переклад: професійний дубльований
кодек: 5.1
бітрейт: 448 кб/с

Аудіо # 2:
мова: англійська
переклад: оригінал
кодек: 5.1
бітрейт: 1536 кб/с

Субтитри 1-2: (форсовані, повні)
мова: українська
тип: програмні (м'які)
формат: *.srt

Субтитри 3-4: (форсовані, повні)
мова: англійська
тип: програмні (м'які)
формат: *.srt
Info
General
Unique ID : 293513189502476993149350726036408686199 (0xDCD09585D7FBCFBAC8AC0E1F5172D677)
Complete name : /home/jacks/Videos/My/Planet of the Apes/Dawn of the Planet of the Apes (2014) [Ukr,Eng] Remux 1080p [Hurtom].
Format :
Format version : Version 4 / Version 2
File size : 22.0 GiB
Duration : 2 h 10 min
Overall bit rate mode : Variable
Overall bit rate : 24.1 Mb/s
Movie name : Release for HURTOM.COM
Encoded date : UTC 2017-11-07 11:30:27
Writing application : v17.0.0 ('Be Ur Friend') 64-bit
Writing library : libebml v1.3.5 + v1.4.8
Attachments : 141105091403124631_f0_0.jpg

Video
ID : 1
Format : AVC
Format/Info : Advanced Video Codec
Format profile : [email protected]
Format settings : CABAC / 4 Ref Frames
Format settings, CABAC : Yes
Format settings, ReFrames : 4 frames
Codec ID : V_MPEG4/ISO/AVC
Duration : 2 h 10 min
Bit rate mode : Variable
Bit rate : 22.2 Mb/s
Maximum bit rate : 35.5 Mb/s
Width : 1 920 pixels
Height : 1 080 pixels
Display aspect ratio : 16:9
Frame rate mode : Constant
Frame rate : 23.976 (24000/1001) FPS
Color space : YUV
Chroma subsampling : 4:2:0
Bit depth : 8 bits
Scan type : Progressive
Bits/(Pixel*Frame) : 0.446
Stream size : 20.2 GiB (92%)
Title : AVC @ 25558 kbps
Default : Yes
Forced : No

Audio #1
ID : 2
Format : AC-3
Format/Info : Audio Coding 3
Codec ID : A_AC3
Duration : 2 h 10 min
Bit rate mode : Constant
Bit rate : 448 kb/s
Channel(s) : 6 channels
Channel positions : Front: L C R, Side: L R, LFE
Sampling rate : 48.0 kHz
Frame rate : 31.250 FPS (1536 SPF)
Bit depth : 16 bits
Compression mode : Lossy
Stream size : 418 MiB (2%)
Title : 5.1 @ 448 kbps
Language : Ukrainian
Service kind : Complete Main
Default : Yes
Forced : Yes

Audio #2
ID : 3
Format :
Format/Info : Digital Theater Systems
Codec ID : A_DTS
Duration : 2 h 10 min
Bit rate mode : Constant
Bit rate : 1 510 kb/s
Channel(s) : 6 channels
Channel positions : Front: L C R, Side: L R, LFE
Sampling rate : 48.0 kHz
Frame rate : 93.750 FPS (512 SPF)
Bit depth : 24 bits
Compression mode : Lossy
Stream size : 1.38 GiB (6%)
Title : 5.1 @ 1510 kbps
Language : English
Default : No
Forced : No

Text #1
ID : 4
Format : UTF-8
Codec ID : S_TEXT/UTF8
Codec ID/Info : UTF-8 Plain Text
Duration : 1 h 40 min
Bit rate : 6 b/s
Count of elements : 121
Stream size : 4.56 KiB (0%)
Title : Forced
Language : Ukrainian
Default : Yes
Forced : Yes

Text #2
ID : 5
Format : UTF-8
Codec ID : S_TEXT/UTF8
Codec ID/Info : UTF-8 Plain Text
Duration : 1 h 57 min
Bit rate : 41 b/s
Count of elements : 877
Stream size : 35.4 KiB (0%)
Title : Full
Language : Ukrainian
Default : No
Forced : No

Text #3
ID : 6
Format : UTF-8
Codec ID : S_TEXT/UTF8
Codec ID/Info : UTF-8 Plain Text
Duration : 1 h 40 min
Bit rate : 3 b/s
Count of elements : 127
Stream size : 2.71 KiB (0%)
Title : Forced
Language : English
Default : No
Forced : No

Text #4
ID : 7
Format : UTF-8
Codec ID : S_TEXT/UTF8
Codec ID/Info : UTF-8 Plain Text
Duration : 1 h 57 min
Bit rate : 23 b/s
Count of elements : 857
Stream size : 20.2 KiB (0%)
Title : Full
Language : English
Default : No
Forced : No
Скріншоти




Джерело: &
Особиста оцінка: 8 - мені сподобалося


Золотий реліз (завантажене не впливає на рейтинг)
 Трекер:    Зареєстрований   

Завантажити / скачати фільм українською



відео для новачків



 Зареєстрований:   2017-11-07 17:21
 Розмір:   21.99 GB 
 Оцінка фільму:   9.2/10 (Голосів: 17)
   
Інші релізи
   Світанок планети мавп / Dawn of the Planet of the Apes (2014) 1080p H.265 Ukr/Eng | Sub Ukr/Eng -Star-Lord-  13 / 0   6.91 GB   2019-03-11 01:17 
   Світанок планети мавп / Dawn of the Planet of the Apes (2014) 360p DmitryA  1 / 0   1.12 GB   2014-12-10 17:18 
   Світанок планети мавп / Dawn of the Planet of the Apes (2014) 1080p 3D [Half OverUnder] Ukr/Eng | Sub Eng 3d_reliz  2 / 0   14.05 GB   2014-12-07 19:47 
   Світанок планети мавп / Dawn of the Planet of the Apes (2014) AVC Ukr/Eng | Sub Ukr/Eng omm  4 / 0   2.41 GB   2014-11-15 17:34 
   Світанок планети мавп / Dawn of the Planet of the Apes (2014) 720p-mini Drool  2 / 0   3.37 GB   2014-11-13 15:52 
   Світанок планети мавп / Dawn of the Planet of the Apes (2014) 1080p Ukr/Eng | Sub Ukr/Eng 11FrYkT  1 / 0   11.29 GB   2014-11-12 08:22 
   Світанок планети мавп / Dawn of the Planet of the Apes (2014) 720p Ukr/Eng | Sub Ukr/Eng 11FrYkT  2 / 0   5.44 GB   2014-11-11 20:37 
   Світанок планети мавп / Dawn of the Planet of the Apes (2014) Blu-ray CEE 1080p Ukr/Eng/Multi | Sub Ukr/Eng/Multi smak2001  1 / 0   43.96 GB   2014-11-11 19:47 
   Світанок планети мавп / Dawn of the Planet of the Apes (2014) patriot2305  6 / 0   1.45 GB   2014-11-11 18:51 
   Світанок планети мавп / Dawn of the Planet of the Apes (2014) Ukr/Eng AngryBirdsUA  1 / 0   2.18 GB   2014-11-11 15:34 
Ваш часовий пояс: GMT + 2 Години

Нова тема   Відповісти