Фрік Таун (Сезон 1) / Freaktown (Season 1) (2016) HDTV 1080i

Нові коментарі

Нова тема   Відповісти
Автор Повідомлення
Anonymous 







2017-11-07 12:39  
Фрік Таун (Сезон 1) / Freaktown (Season 1) (2016) HDTV 1080i

Фрік Таун (Сезон 1) / Freaktown (Season 1) (2016) HDTV 1080i


Жанр: анімація, пригодницький
Країна: Канада



Кінокомпанія: Teletoon
Режисер: Chris LaBonte та Peter Ricq
Актори/ролі озвучують: Бен - Ландон Норіс, Ленні - Корі Доран, Прісцилла - Стефані Лінн Робінсон, Принцеса Бу -Бу - Джулі Лем'є, М'якунчик - Метт Барам, Блискунчик - Річард Бінслі, Тейлор - Джеймі Вотсон

Сюжет:
Фрік Таун це місце, де круто, бути упирем, і найкращі друзі Бен Кіст і Ленні Богомол прагнуть зберегти його таким. Але принцеса Бу-Бу намагається перетворити Фрік Таун на солодке місце з веселками та пухнастиками


Тривалість: 1 серія: 12хв (цілком серій: 26(52) з 26(52))
Якість: HDTV 1080p [Niki Kids HD]
Відео:
кодек:
розмір кадру: 1920 х 1080
бітрейт: 4300-6100 кб/с
примітка: український відеоряд

Аудіо:
мова: українська
переклад: професійний дубльований
кодек: /MP2 2.0 [стерео]
бітрейт: 119/192 кб/с
Перелік наявних серій

*(sat) - серія записана з супутника
інші з архіву Vodafone.tv і поступово будуть оновлюватися.

1а - Злив день(sat)
1b - Принцеса і череп(sat)
2a - Дзюрчання Тейлора солдата шпигуна(sat)
2b - Пастка сну(sat)
3a - Історія про шовковий зад(sat)
3b - Битва подушок(sat)
4a - Б - 1000(sat)
4b - Лорд М'якунчик прищавий(sat)
5а - Створи Бена(sat)
5b - Кістки Бена(sat)
6a - М'язисте тіло Бена(sat)
6b - Виклик(sat)
7a - Криза Купідона(sat)
7b - Побачення з небезпекою(sat)
8a - Кумедна кістка(sat)
8b - Псувальник басейної вечірки
9a - Мрія кричати
9b - Пухнасті справи
10а - Пенсійна знижка(sat)
10b - Пекельний(sat)
11a - Нянька Бен
11b - Блювррріто
12a - Вирости фріка(sat)
12b - Школа магії(sat)
13a - Пацюк бажань(sat)
13b - Дощ із кошенят(sat)
14a - Фріки у космосі
14b - Блискуча юшка(sat)
15a - День Лосьмара(sat)
15b - Чихачка
16a - Монстр під ліжком(sat)
16b - Принцеса Бларг-Бларг(sat)
17a - Гороховий чих
17b - Нервовий зрив Бу-Бу(sat)
18a - Кокон Ленні(sat)
18b - Фонтан дивацтв(sat)
19a - Сонцекаліпсис
19b - Втрачений ріг
20a - Жахання
20b - Бджолині справи(sat)
21a - Підкорюй добротою
21b - Матінка-природа
22a - Солодкі авіалінії
22b - Язик мій-ворог мій
23a - Нове захоплення Бу- Бу
23b - Нічні вогні(sat)
24a - Свен і Кенні
24b - Скелети-байкери
25a - Погодний зомбі
25b - Зубні ніндзя
26a - Бруд між пальцями
26b - Змагання кафе(sat)
Скріншоти





Медіаінфо
Complete name : E:\Freaktown\S01E01a.
Format :
Format version : Version 4 / Version 2
File size : 368 MiB
Duration : 11 min 16 s
Overall bit rate : 4 562 kb/s
Encoded date : UTC 2017-12-01 15:00:08
Writing application : v8.8.0 ('Wind at my back') 64bit
Writing library : libebml v1.3.3 + v1.4.4

Video
ID : 1
Format : AVC
Format/Info : Advanced Video Codec
Format profile : [email protected]
Format settings : CABAC / 4 Ref Frames
Format settings, CABAC : Yes
Format settings, ReFrames : 4 frames
Codec ID : V_MPEG4/ISO/AVC
Duration : 11 min 16 s
Bit rate : 4 370 kb/s
Width : 1 920 pixels
Height : 1 080 pixels
Display aspect ratio : 16:9
Frame rate mode : Variable
Frame rate : 50.000 FPS
Original frame rate : 25.000 FPS
Color space : YUV
Chroma subsampling : 4:2:0
Bit depth : 8 bits
Scan type : Interlaced
Scan type, store method : Separated fields
Scan order : Top Field First
Bits/(Pixel*Frame) : 0.042
Stream size : 352 MiB (96%)
Default : Yes
Forced : No
Color range : Limited
Color primaries : BT.709
Transfer characteristics : BT.709
Matrix coefficients : BT.709

Audio
ID : 2
Format : MPEG Audio
Format version : Version 1
Format profile : Layer 2
Codec ID : A_MPEG/L2
Codec ID/Hint : MP2
Duration : 11 min 16 s
Bit rate mode : Constant
Bit rate : 192 kb/s
Channel(s) : 2 channels
Sampling rate : 48.0 kHz
Frame rate : 41.667 FPS (1152 SPF)
Compression mode : Lossy
Delay relative to video : -640 ms
Stream size : 15.5 MiB (4%)
Title : Niki Kids - Дубляж
Language : Ukrainian
Default : Yes
Forced : No
Джерело:
Особиста оцінка: 7- не поганий сучасний мульт.
Подяка: andros507 за надання більшості серій.
Подяка: Ham_R за постер.


Бронзовий реліз (на рейтинг впливає 75% завантаженого)
 Трекер:    Зареєстрований   

Завантажити / скачати мультфільм українською



відео для новачків



 Зареєстрований:   2017-12-30 14:57
 Розмір:   21.42 GB 
 Оцінка мультсеріалу:   4.4/10 (Голосів: 18)
   
Anonymous 







2017-12-30 14:49  
Додано нову серію 26b
Та замінено на запис зі супутника серії 3b та 6b

Тепер Повний Сезон
Хто вже вантажив торент раніше то завантажте тільки ці серії

Перлина 
Свій


З нами з: 22.03.10
Востаннє: 13.12.18
Повідомлень: 106

2018-01-05 08:31  
буду вдячний за роздачу
Ваш часовий пояс: GMT + 2 Години

Нова тема   Відповісти