Людина-павук: Повернення додому / Spider-Man: Homecoming (2017) 720p-mini (60 fps)

Нові коментарі

Нова тема   Відповісти
Автор Повідомлення
Drool 
VIP


З нами з: 17.04.10
Востаннє: 22.09.18
Повідомлень: 1474

2017-11-07 12:08  
Людина-павук: Повернення додому / Spider-Man: Homecoming (2017) 720p-mini (60 fps)

Людина-павук: Повернення додому / Spider-Man: Homecoming (2017) 720p-mini (60 fps)


Жанр: фантастика, екшн, пригодницький
Країна: США


Діти до 13 років допускаються на фільм тільки з батьками
Настійне застереження батькам. Деякий матеріал може бути невідповідним для дітей до 13 років. Цей рейтинг показує, що оцінений фільм може бути невідповідним для дітей. Батьки повинні бути особливо обережні, дозволяючи своїм маленьким дітям перегляд. Грубе або тривале насильство відсутнє; сексуальна орієнтація на наготу відсутня; деякі сцени вживання наркотиків можуть бути присутніми; можна почути одиничні вживання грубої сексуальної лексики. Присутня епізодична оголеність (не враховуючи репродуктивні органи). Присутні сексуальні натяки і натяки на гомосексуалізм чи сексуальні збочення.
Кінокомпанія: Columbia Pictures, Marvel Studios, Pascal Pictures
Режисер: Джонатан Воттс
Актори: Том Голланд, Роберт Дауні мол., Майкл Кітон, Маріса Томей, Джон Фавро, Зендея Коулман, Дональд Гловер, Джейкоб Баталон

Сюжет:
Після історичної зустрічі з командою Месників Пітер Паркер повертається додому, намагаючись зажити нормальним життям під опікою своєї тітки Мей. Але тепер за Пітером наглядає ще дещо... Тоні Старк бачив Людину-Павука у справі і повинен стати його наставником. Коли новий лиходій Стерв'ятник загрожує знищити все, що дорого Пітеру, приходить час довести всім, що таке справжній супергерой.


Тривалість: 02:13:28
Якість: 720p-mini
Відео:
кодек:
розмір кадру: 1280x534
бітрейт: 4540 кб/с
crf: 16.6
кадрів на секунду: 60.000 к/с

Аудіо:
мова: українська
переклад: професійний дубльований
кодек: 5.1
бітрейт: 448 кб/с

Субтитри:
мова: українська
тип: програмні (м'які)
формат: *.srt
Info
Код:
General
Unique ID                                : 49672170637378387086527579844776417156 (0x255E8317E4892B59D08981D82005D784)
Complete name                            : /mnt/disk_d/Video/Spider-Man.Homecoming.2017.Ukr.Dub..720p-mini.60fps.
Format                                   :
Format version                           : Version 4 / Version 2
File size                                : 4.65 GiB
Duration                                 : 2 h 13 min
Overall bit rate                         : 4 992 kb/s
Movie name                               : Людина-павук: Повернення додому / Spider-Man: Homecoming (2017) 720p-mini [60 fps] | NNNB
Encoded date                             : UTC 2017-11-07 10:52:47
Writing application                      : v14.0.0 ('Flow') 64bit
Writing library                          : libebml v1.3.4 + v1.4.7
Cover                                    : Yes
Attachments                              : cover.png

Video
ID                                       : 1
Format                                   : AVC
Format/Info                              : Advanced Video Codec
Format profile                           : [email protected]
Format settings                          : CABAC / 9 Ref Frames
Format settings, CABAC                   : Yes
Format settings, RefFrames               : 9 frames
Codec ID                                 : V_MPEG4/ISO/AVC
Duration                                 : 2 h 13 min
Bit rate                                 : 4 540 kb/s
Width                                    : 1 280 pixels
Height                                   : 534 pixels
Display aspect ratio                     : 2.40:1
Frame rate mode                          : Constant
Frame rate                               : 60.000 FPS
Color space                              : YUV
Chroma subsampling                       : 4:2:0
Bit depth                                : 8 bits
Scan type                                : Progressive
Bits/(Pixel*Frame)                       : 0.111
Stream size                              : 4.23 GiB (91%)
Title                                    : Людина-павук: Повернення додому / Spider-Man: Homecoming (2017) 720p-mini [60 fps] | NNNB
Writing library                          : core 146 r2538 121396c
Encoding settings                        : cabac=1 / ref=9 / deblock=1:0:0 / analyse=0x3:0x113 / me=umh / subme=11 / psy=1 / psy_rd=1.00:0.00 / mixed_ref=1 / me_range=24 / chroma_me=1 / trellis=2 / 8x8dct=1 / cqm=0 / deadzone=21,11 / fast_pskip=0 / chroma_qp_offset=-2 / threads=12 / lookahead_threads=1 / sliced_threads=0 / nr=0 / decimate=1 / interlaced=0 / bluray_compat=0 / constrained_intra=0 / bframes=5 / b_pyramid=2 / b_adapt=2 / b_bias=0 / direct=3 / weightb=1 / open_gop=0 / weightp=2 / keyint=250 / keyint_min=25 / scenecut=40 / intra_refresh=0 / rc=crf / mbtree=0 / crf=16.6 / qcomp=0.60 / qpmin=0 / qpmax=69 / qpstep=4 / ip_ratio=1.40 / pb_ratio=1.30 / aq=3:0.80
Default                                  : Yes
Forced                                   : Yes

Audio
ID                                       : 2
Format                                   : AC-3
Format/Info                              : Audio Coding 3
Format settings, Endianness              : Big
Codec ID                                 : A_AC3
Duration                                 : 2 h 13 min
Bit rate mode                            : Constant
Bit rate                                 : 448 kb/s
Channel(s)                               : 6 channels
Channel positions                        : Front: L C R, Side: L R, LFE
Sampling rate                            : 48.0 kHz
Frame rate                               : 31.250 FPS (1536 SPF)
Bit depth                                : 16 bits
Compression mode                         : Lossy
Stream size                              : 428 MiB (9%)
Title                                    : 5.1 @ 448 kbps
Language                                 : Ukrainian
Service kind                             : Complete Main
Default                                  : Yes
Forced                                   : Yes

Text
ID                                       : 3
Format                                   : UTF-8
Codec ID                                 : S_TEXT/UTF8
Codec ID/Info                            : UTF-8 Plain Text
Duration                                 : 2 h 0 min
Bit rate                                 : 1 b/s
Count of elements                        : 27
Stream size                              : 1.33 KiB (0%)
Title                                    : Forced
Language                                 : Ukrainian
Default                                  : Yes
Forced                                   : Yes
Скріншоти




Джерело відеоряду:
Особиста оцінка: 8 - мені сподобалося
Компіляція українських форсованих субтитрів: Ash61 та igor911


 Трекер:    Зареєстрований   

Завантажити / скачати фільм українською



відео для новачків



 Зареєстрований:   2017-11-07 14:08
 Розмір:   4.65 GB 
 Оцінка фільму:   8.7/10 (Голосів: 32)
   
vatariys 
Новенький


З нами з: 15.04.14
Востаннє: 17.09.18
Повідомлень: 5

2018-09-08 13:51  
побільше б 60 fps
Drool 
VIP


З нами з: 17.04.10
Востаннє: 22.09.18
Повідомлень: 1474

2018-09-10 21:50  
vatariys написано:
побільше б 60 fps
Так приєднуйтесь.
Ваш часовий пояс: GMT + 2 Години

Нова тема   Відповісти